BitTorrentTracker PerecTracker.org
BitTorrentTracker PerecTracker.org
    
Регистрация  ·  Вход
 
 · 
Забыли пароль?

  • Здравствуй, папа, Новый год / Daddy\'s Home (Шон Андерс / Sean Anders) [2015, США, комедия, BDRip-AVC] Dub + Original + Sub (rus, eng)

    Ответить на тему
     
    Автор Сообщение

    Light

    Создавать темы 05-Апр-2016 08:06

           

    [Цитировать]

    Здравствуй, папа, Новый год / Daddy's Home«Dad vs step-dad»-Страна: США
    Жанр: комедия
    Год выпуска: 2015
    Продолжительность: 01:36:01
    Перевод: Профессиональный (полное дублирование) (iTunes)
    Оригинальная аудиодорожка: английский
    Cубтитры: русские (форс., полные), английские (форс., полные, SDH)
    Навигация по главам: есть
    Режиссёр: Шон Андерс / Sean Anders
    В ролях: Уилл Феррелл, Марк Уолберг, Линда Карделлини, Томас Хейден Чёрч, Скарлет Эстевез, Оуэн Ваккаро, Бобби Каннавале, Хэннибал Бёресс, Билл Бёрр, Джейми Денбо
    Описание: Отец двоих детей возвращается к своей бывшей жене, которая успела выйти замуж, и теперь его ждет соперничество с отчимом за внимание своих отпрысков.

    Качество видео: BDRip-AVC (исходник - BDRemux|Daddys.Home.2015.REMUX.1080p.BluRay.AVC.DTS-HD.MA7.1-SOLiD)
    Формат видео: MKV
    Видео: x264, 1024x576 (16:9), 23,976 fps, ~2480 kbps, 0.175 bit/pixel
    Аудио 1: 48 kHz, AC3 Dolby Digital, 3/2 (L,C,R,l,r) + LFE ch, ~384 kbps [русский]
    Аудио 2: 48 kHz, AC3 Dolby Digital, 3/2 (L,C,R,l,r) + LFE ch, ~384 kbps [английский]
    Формат субтитров: softsub (SRT)
    MediaInfo | x264 log
    Format : Matroska
    Format version : Version 4 / Version 2
    File size : 2.18 GiB
    Duration : 1h 36mn
    Overall bit rate : 3 249 Kbps
    Movie name : Здравствуй, папа, Новый год / Daddy's Home (2015) :: AFM ::
    Encoded date : UTC 2016-04-04 20:32:28
    Writing application : mkvmerge v8.3.0 ('Over the Horizon') 32bit
    Writing library : libebml v1.3.1 + libmatroska v1.4.2
    Video
    ID : 1
    Format : AVC
    Format/Info : Advanced Video Codec
    Format profile : High@L4.1
    Format settings, CABAC : Yes
    Format settings, ReFrames : 10 frames
    Codec ID : V_MPEG4/ISO/AVC
    Duration : 1h 36mn
    Bit rate : 2 480 Kbps
    Width : 1 024 pixels
    Height : 576 pixels
    Display aspect ratio : 16:9
    Frame rate mode : Constant
    Frame rate : 23.976 fps
    Color space : YUV
    Chroma subsampling : 4:2:0
    Bit depth : 8 bits
    Scan type : Progressive
    Bits/(Pixel*Frame) : 0.175
    Stream size : 1.62 GiB (74%)
    Title : BDRip by AFM [RuTracker.org]
    Writing library : x264 core 148 r2665+53 6629127 t_mod_Custom [8-bit@all X86_64]
    Encoding settings : cabac=1 / ref=10 / deblock=1:-2:-2 / analyse=0x3:0x113 / me=umh / subme=10 / psy=1 / fade_compensate=0.00 / psy_rd=1.00:0.00 / mixed_ref=1 / me_range=32 / chroma_me=1 / trellis=2 / 8x8dct=1 / cqm=0 / deadzone=21,11 / fast_pskip=0 / chroma_qp_offset=-2 / threads=6 / lookahead_threads=1 / sliced_threads=0 / nr=0 / decimate=0 / interlaced=0 / bluray_compat=0 / constrained_intra=0 / fgo=0 / bframes=13 / b_pyramid=2 / b_adapt=2 / b_bias=0 / direct=1 / weightb=1 / open_gop=0 / weightp=2 / keyint=250 / keyint_min=23 / scenecut=40 / intra_refresh=0 / rc_lookahead=40 / rc=2pass / mbtree=0 / bitrate=2480 / ratetol=1.0 / qcomp=0.65 / qpmin=0:0:0 / qpmax=69:69:69 / qpstep=4 / cplxblur=20.0 / qblur=0.5 / vbv_maxrate=50000 / vbv_bufsize=62500 / nal_hrd=none / filler=0 / ip_ratio=1.35 / pb_ratio=1.30 / aq=3:0.90 / aq-sensitivity=10.00 / aq-factor=1.00:1.00:1.00 / aq2=0 / aq3=0 / zones=131490,138146,q=30
    Language : English
    Default : Yes
    Forced : No
    Audio #1
    ID : 2
    Format : AC-3
    Format/Info : Audio Coding 3
    Mode extension : CM (complete main)
    Format settings, Endianness : Big
    Codec ID : A_AC3
    Duration : 1h 36mn
    Bit rate mode : Constant
    Bit rate : 384 Kbps
    Channel(s) : 6 channels
    Channel positions : Front: L C R, Side: L R, LFE
    Sampling rate : 48.0 KHz
    Compression mode : Lossy
    Stream size : 264 MiB (12%)
    Title : Dub, AC3 5.1 ~384 kbps
    Language : Russian
    Default : Yes
    Forced : No
    Audio #2
    ID : 3
    Format : AC-3
    Format/Info : Audio Coding 3
    Mode extension : CM (complete main)
    Format settings, Endianness : Big
    Codec ID : A_AC3
    Duration : 1h 36mn
    Bit rate mode : Constant
    Bit rate : 384 Kbps
    Channel(s) : 6 channels
    Channel positions : Front: L C R, Side: L R, LFE
    Sampling rate : 48.0 KHz
    Compression mode : Lossy
    Stream size : 264 MiB (12%)
    Title : Original, AC3 5.1 ~384 kbps
    Language : English
    Default : No
    Forced : No
    Text #1
    ID : 4
    Format : UTF-8
    Codec ID : S_TEXT/UTF8
    Codec ID/Info : UTF-8 Plain Text
    Title : forced
    Language : Russian
    Default : Yes
    Forced : No
    Text #2
    ID : 5
    Format : UTF-8
    Codec ID : S_TEXT/UTF8
    Codec ID/Info : UTF-8 Plain Text
    Title : full
    Language : Russian
    Default : No
    Forced : No
    Text #3
    ID : 6
    Format : UTF-8
    Codec ID : S_TEXT/UTF8
    Codec ID/Info : UTF-8 Plain Text
    Title : forced
    Language : English
    Default : No
    Forced : No
    Text #4
    ID : 7
    Format : UTF-8
    Codec ID : S_TEXT/UTF8
    Codec ID/Info : UTF-8 Plain Text
    Title : full
    Language : English
    Default : No
    Forced : No
    Text #5
    ID : 8
    Format : UTF-8
    Codec ID : S_TEXT/UTF8
    Codec ID/Info : UTF-8 Plain Text
    Title : SDH
    Language : English
    Default : No
    Forced : No
    Menu
    00:00:00.000 : en:Chapter 1
    00:09:23.729 : en:Chapter 2
    00:19:57.070 : en:Chapter 3
    00:28:45.014 : en:Chapter 4
    00:35:35.049 : en:Chapter 5
    00:44:05.768 : en:Chapter 6
    00:55:54.726 : en:Chapter 7
    01:03:21.047 : en:Chapter 8
    01:12:08.198 : en:Chapter 9
    01:21:58.204 : en:Chapter 10
    01:31:15.261 : en:Chapter 11

    x264

    x264 [info]: frame I:1626 Avg QP:14.07 size: 97225
    x264 [info]: frame P:30368 Avg QP:17.63 size: 27543
    x264 [info]: frame B:106152 Avg QP:18.38 size: 7446
    x264 [info]: consecutive B-frames: 2.8% 2.2% 8.6% 20.9% 18.0% 39.4% 4.5% 1.2% 0.9% 0.4% 0.3% 0.2% 0.2% 0.4%
    x264 [info]: mb I I16..4: 3.1% 77.8% 19.1%
    x264 [info]: mb P I16..4: 0.6% 8.7% 1.4% P16..4: 35.9% 29.4% 16.8% 0.0% 0.0% skip: 7.2%
    x264 [info]: mb B I16..4: 0.0% 0.4% 0.1% B16..8: 37.4% 13.4% 4.0% direct: 3.9% skip:40.8% L0:43.9% L1:43.7% BI:12.4%
    x264 [info]: 8x8 transform intra:79.4% inter:54.7%
    x264 [info]: coded y,uvDC,uvAC intra: 91.2% 90.8% 78.8% inter: 20.6% 20.7% 12.2%
    x264 [info]: i16 v,h,dc,p: 37% 12% 8% 43%
    x264 [info]: i8 v,h,dc,ddl,ddr,vr,hd,vl,hu: 14% 9% 8% 9% 12% 13% 11% 12% 12%
    x264 [info]: i4 v,h,dc,ddl,ddr,vr,hd,vl,hu: 13% 8% 3% 9% 15% 15% 13% 12% 12%
    x264 [info]: i8c dc,h,v,p: 49% 17% 19% 16%
    x264 [info]: Weighted P-Frames: Y:96.5% UV:0.7%
    x264 [info]: ref P L0: 49.3% 9.3% 17.7% 6.5% 5.4% 3.4% 3.3% 1.7% 1.7% 1.4% 0.2% 0.0%
    x264 [info]: ref B L0: 70.7% 13.1% 6.1% 3.5% 2.3% 1.9% 1.4% 0.7% 0.3%
    x264 [info]: ref B L1: 92.0% 8.0%
    x264 [info]: kb/s:2478.31

    Скриншоты

    с названием

    Скачать .torrent

    Скачать торрент-файл бесплатно и на максимальной скорости!

    Как скачивать? · Что такое торрент? · Рейтинг и ограничения

    !ВНИМАНИЕ!
    Сайт не распространяет и не хранит электронные версии произведений, а занимается лишь лишь предоставлением доступа к создаваемому пользователями каталогу ссылок на торрент-файлы, которые содержат только списки хеш-сумм, убедительная просьба с жалобами обращаться напрямую к пользователю. Файлы для обмена на трекере предоставлены пользователями сайта, и администрация не несёт ответственности за их содержание. Просьба не заливать файлы, защищенные авторскими правами, а также файлы нелегального содержания!


    _________________
    [Профиль] [ЛС]
    Показать сообщения:    
    Ответить на тему

    Текущее время: Сегодня, в 08:02

    Часовой пояс: GMT + 2



    Вы не можете начинать темы
    Вы не можете отвечать на сообщения
    Вы не можете редактировать свои сообщения
    Вы не можете удалять свои сообщения
    Вы не можете голосовать в опросах
    Вы не можете прикреплять файлы к сообщениям
    Вы не можете скачивать файлы