BitTorrentTracker PerecTracker.org
BitTorrentTracker PerecTracker.org
    
Регистрация  ·  Вход
 
 · 
Забыли пароль?

  • Женщины против мужчин (Таир Мамедов) [2015, Комедия, WEB-DLRip]

    Ответить на тему
     
    Автор Сообщение

    Flirldrerve

    Создавать темы 05-Апр-2016 03:55

           

    [Цитировать]

    Женщины против мужчин-Жанр: Комедия
    Год выпуска: 2015
    Продолжительность: 01:24:04-Режиссёр: Таир Мамедов-В ролях: Роман Юнусов, Александр Головин, Денис Косяков, Мария Кравченко, Настасья Самбурская, Наталья Рудова, Таир Мамедов, Олег Верещагин, Карен Манташян, Александр Шаляпин-Описание: Школьная любовь трех замечательных пар заканчивается тремя прекрасными свадьбами и сумасшедшим свадебным путешествием на экзотическую и горячую Кубу. Но первый же день долгожданного медового месяца окончился гигантской ссорой, переходящей в вечную войну мужчин против женщин. А на войне, как и в любви, правил нет! Пираньи в бассейн? Запросто! Пожар в номере? Не вопрос! Флирт на глазах у любимого мужа? Однозначно, да! И все это, конечно же, во имя любви!- l -Качество видео: WEB-DLRip
    Формат видео: AVI-Видео: 720x304 (2.35:1), 24.000 fps, XviD build 50, 1934 Kbps
    Аудио: 48.0 kHz, AC3 Dolby Digital, 3/2 (L,C,R,l,r) + LFE ch, 384 Kbps--

    MediaInfo

    General
    Complete name : Downloads\Jen.Vs.Man.2015.WEB-DLRip..avi
    Format : AVI
    Format/Info : Audio Video Interleave
    File size : 1.37 GiB
    Duration : 1h 24mn
    Overall bit rate : 2 327 Kbps
    Writing application : VirtualDubMod 1.5.10.2 (build 2540/release)
    Writing library : VirtualDubMod build 2540/release
    Video #0
    ID : 0
    Format : MPEG-4 Visual
    Format profile : Advanced Simple@L5
    Format settings, BVOP : 2
    Format settings, QPel : No
    Format settings, GMC : No warppoints
    Format settings, Matrix : Default (MPEG)
    Codec ID : XVID
    Codec ID/Hint : XviD
    Duration : 1h 24mn
    Bit rate : 1 934 Kbps
    Width : 720 pixels
    Height : 304 pixels
    Display aspect ratio : 2.35:1
    Frame rate : 24.000 fps
    Color space : YUV
    Chroma subsampling : 4:2:0
    Bit depth : 8 bits
    Scan type : Progressive
    Compression mode : Lossy
    Bits/(Pixel*Frame) : 0.368
    Stream size : 1.14 GiB (83%)
    Writing library : XviD 1.2.1 (UTC 2008-12-04)
    Audio #1
    ID : 1
    Format : AC-3
    Format/Info : Audio Coding 3
    Mode extension : CM (complete main)
    Format settings, Endianness : Big
    Codec ID : 2000
    Duration : 1h 24mn
    Bit rate mode : Constant
    Bit rate : 384 Kbps
    Channel(s) : 6 channels
    Channel positions : Front: L C R, Side: L R, LFE
    Sampling rate : 48.0 KHz
    Bit depth : 16 bits
    Compression mode : Lossy
    Stream size : 231 MiB (17%)
    Alignment : Split accross interleaves
    Interleave, duration : 42 ms (1.00 video frame)
    Interleave, preload duration : 500 ms

    Скриншот c названием фильма

    Скриншоты

    Скачать .torrent

    Скачать торрент-файл бесплатно и на максимальной скорости!

    Как скачивать? · Что такое торрент? · Рейтинг и ограничения

    !ВНИМАНИЕ!
    Сайт не распространяет и не хранит электронные версии произведений, а занимается лишь лишь предоставлением доступа к создаваемому пользователями каталогу ссылок на торрент-файлы, которые содержат только списки хеш-сумм, убедительная просьба с жалобами обращаться напрямую к пользователю. Файлы для обмена на трекере предоставлены пользователями сайта, и администрация не несёт ответственности за их содержание. Просьба не заливать файлы, защищенные авторскими правами, а также файлы нелегального содержания!


    _________________
    [Профиль] [ЛС]
    Показать сообщения:    
    Ответить на тему

    Текущее время: Сегодня, в 04:15

    Часовой пояс: GMT + 2



    Вы не можете начинать темы
    Вы не можете отвечать на сообщения
    Вы не можете редактировать свои сообщения
    Вы не можете удалять свои сообщения
    Вы не можете голосовать в опросах
    Вы не можете прикреплять файлы к сообщениям
    Вы не можете скачивать файлы