BitTorrentTracker PerecTracker.org
BitTorrentTracker PerecTracker.org
    
Регистрация  ·  Вход
 
 · 
Забыли пароль?

  • Вокзал / Terminus (Марк Фурми / Marc Furmie) [2015, Австралия, фантастика, BDRip 720p] MVO (Paradox & Omskbird Records) + Sub Eng + Original Eng

    Ответить на тему
     
    Автор Сообщение

    Light

    Создавать темы 05-Апр-2016 03:55

           

    [Цитировать]

    Вокзал / Terminus-Страна: Австралия
    Жанр: Фантастика, драма
    Год выпуска: 2015
    Продолжительность: 01:33:53
    Перевод: Любительский (многоголосый закадровый) Paradox & Omskbird Records
    Cубтитры: английские
    Оригинальная аудиодорожка: английский-Режиссер: Марк Фурми / Marc Furmie
    В ролях: Джай Кутрэ, Кендра Эпплтон, Тодд Ласанс, Брен Фостер, Брендан Клиркин, Винсент Андриано, Уильям Эммонс, Кэтерин Хикс, Стив Ле Маркванд, Джон Маннинг-Описание: В результате несчастного случая, оказавшись на грани между жизнью и смертью, Дэвид Чемберлен делает беспрецедентное открытие, которое предопределит не только судьбу его семьи, но и судьбу всего человечества…-Доп. инфо: Перевод - Екатерина Кузнецова, Роли озвучивали - Константин Погодаев, Владислав Данилов, Анастасия Флигина, Максим Максимов.-
    - буквально 1 раз за весь фильм.-Тип релиза: BDRip 720p (исх. Terminus.2015.1080p.BluRay.REMUX.AVC.DTS-HR.5.1)
    Контейнер: MKV
    Видео: x264, 1280x536, 4710 Kbps, 23.976 fps, 0.286 bpf
    Аудио 1: AC3, 448 Kbps, 5.1 channels, 48000 Hz - MVO (Paradox & Omskbird Records)
    Аудио 2: DTS, 1509 Kbps, 5.1 channels, 48000 Hz - ENG (Original)
    Формат субтитров: softsub (SRT) - английские

    Скриншоты


    Резервные скриншоты



    -

    MediaInfo

    Format : Matroska
    Format version : Version 2
    File size : 4.37 GiB
    Duration : 1h 33mn
    Overall bit rate : 6 659 Kbps
    Movie name : Вокзал / Terminus (2015) BDRip 720p by RG Torrent.ru
    Encoded date : UTC 2016-04-03 10:41:10
    Writing application : mkvmerge v7.8.0 ('River Man') 32bit built on Mar 27 2015 16:18:02
    Writing library : libebml v1.3.1 + libmatroska v1.4.2
    Cover : Yes
    Video
    ID : 1
    Format : AVC
    Format/Info : Advanced Video Codec
    Format profile : High@L4.1
    Format settings, CABAC : Yes
    Format settings, ReFrames : 10 frames
    Codec ID : V_MPEG4/ISO/AVC
    Duration : 1h 33mn
    Bit rate : 4 710 Kbps
    Width : 1 280 pixels
    Height : 536 pixels
    Display aspect ratio : 2.40:1
    Frame rate mode : Constant
    Frame rate : 23.976 fps
    Color space : YUV
    Chroma subsampling : 4:2:0
    Bit depth : 8 bits
    Scan type : Progressive
    Bits/(Pixel*Frame) : 0.286
    Stream size : 3.00 GiB (69%)
    Writing library : x264 core 148 r2665 a01e339
    Encoding settings : cabac=1 / ref=10 / deblock=1:-3:-3 / analyse=0x3:0x133 / me=umh / subme=10 / psy=1 / psy_rd=1.00:0.00 / mixed_ref=1 / me_range=32 / chroma_me=1 / trellis=2 / 8x8dct=1 / cqm=0 / deadzone=21,11 / fast_pskip=0 / chroma_qp_offset=-2 / threads=6 / lookahead_threads=1 / sliced_threads=0 / nr=0 / decimate=1 / interlaced=0 / bluray_compat=0 / constrained_intra=0 / bframes=8 / b_pyramid=2 / b_adapt=2 / b_bias=0 / direct=3 / weightb=1 / open_gop=0 / weightp=2 / keyint=240 / keyint_min=23 / scenecut=40 / intra_refresh=0 / rc_lookahead=60 / rc=2pass / mbtree=0 / bitrate=4710 / ratetol=1.0 / qcomp=0.60 / qpmin=0 / qpmax=69 / qpstep=4 / cplxblur=20.0 / qblur=0.5 / vbv_maxrate=50000 / vbv_bufsize=62500 / nal_hrd=none / filler=0 / ip_ratio=1.40 / pb_ratio=1.25 / aq=2:0.80 / zones=128480,135071,b=0.3
    Language : English
    Default : Yes
    Forced : No
    Audio #1
    ID : 2
    Format : AC-3
    Format/Info : Audio Coding 3
    Mode extension : CM (complete main)
    Format settings, Endianness : Big
    Codec ID : A_AC3
    Duration : 1h 33mn
    Bit rate mode : Constant
    Bit rate : 448 Kbps
    Channel(s) : 6 channels
    Channel positions : Front: L C R, Side: L R, LFE
    Sampling rate : 48.0 KHz
    Bit depth : 16 bits
    Compression mode : Lossy
    Stream size : 301 MiB (7%)
    Title : MVO - Paradox & Omskbird records
    Language : Russian
    Default : Yes
    Forced : No
    Audio #2
    ID : 3
    Format : DTS
    Format/Info : Digital Theater Systems
    Mode : 16
    Format settings, Endianness : Big
    Codec ID : A_DTS
    Duration : 1h 33mn
    Bit rate mode : Constant
    Bit rate : 1 509 Kbps
    Channel(s) : 6 channels
    Channel positions : Front: L C R, Side: L R, LFE
    Sampling rate : 48.0 KHz
    Bit depth : 16 bits
    Compression mode : Lossy
    Stream size : 1 013 MiB (23%)
    Language : English
    Default : No
    Forced : No
    Text
    ID : 4
    Format : UTF-8
    Codec ID : S_TEXT/UTF8
    Codec ID/Info : UTF-8 Plain Text
    Language : English
    Default : No
    Forced : No
    Menu
    00:00:00.000 : en:Chapter 01
    00:05:52.852 : en:Chapter 02
    00:13:18.923 : en:Chapter 03
    00:18:23.727 : en:Chapter 04
    00:28:35.964 : en:Chapter 05
    00:35:36.259 : en:Chapter 06
    00:44:04.683 : en:Chapter 07
    00:53:51.061 : en:Chapter 08
    01:03:04.113 : en:Chapter 09
    01:11:09.640 : en:Chapter 10
    01:19:31.558 : en:Chapter 11
    01:27:02.842 : en:Chapter 12
    Скачать .torrent

    Скачать торрент-файл бесплатно и на максимальной скорости!

    Как скачивать? · Что такое торрент? · Рейтинг и ограничения

    !ВНИМАНИЕ!
    Сайт не распространяет и не хранит электронные версии произведений, а занимается лишь лишь предоставлением доступа к создаваемому пользователями каталогу ссылок на торрент-файлы, которые содержат только списки хеш-сумм, убедительная просьба с жалобами обращаться напрямую к пользователю. Файлы для обмена на трекере предоставлены пользователями сайта, и администрация не несёт ответственности за их содержание. Просьба не заливать файлы, защищенные авторскими правами, а также файлы нелегального содержания!


    _________________
    [Профиль] [ЛС]
    Показать сообщения:    
    Ответить на тему

    Текущее время: Сегодня, в 18:51

    Часовой пояс: GMT + 2



    Вы не можете начинать темы
    Вы не можете отвечать на сообщения
    Вы не можете редактировать свои сообщения
    Вы не можете удалять свои сообщения
    Вы не можете голосовать в опросах
    Вы не можете прикреплять файлы к сообщениям
    Вы не можете скачивать файлы