BitTorrentTracker PerecTracker.org
BitTorrentTracker PerecTracker.org
    
Регистрация  ·  Вход
 
 · 
Забыли пароль?

  • Первое лето / Le premier ete (Марион Сарро / Marion Sarraut) [2013, Франция, драма, экранизация, DVB] Original (Fre) + Sub (Rus, Eng, Fre, Deu)

    Ответить на тему
     
    Автор Сообщение

    Light

    Создавать темы 05-Апр-2016 03:55

           

    [Цитировать]

    Первое лето
    Le premier été-Страна: Франция
    Жанр: драма, экранизация
    Год выпуска: 2013
    Продолжительность: 01:31:13
    Перевод: Субтитры (перевод А.Вижье, Éclair Group)
    Cубтитры: русские, английские, французские, немецкие, нидерландские, румынские
    Оригинальная аудиодорожка: французский
    Режиссер: Марион Сарро / Marion SarrautВ ролях: Элен Венсан / Hélène Vincent (Madeleine), Жан-Франсуа Стевенен / Jean-François Stévenin (Papy), Нина Мазодье / Nina Mazodier (Catherine ado), Ноэми Шмидт / Noémie Schmidt (Angelique ado), Романа Боринже / Romane Bohringer (Catherine), Марианн Басле / Marianne Basler (Angelique), Илиан Бергала / Ilian Bergala (Sebastien), Сэм Лелуш / Sam Lellouche (Antoine)
    Описание: По одноименному роману Анн Персен / Anne Percin (2011), получившему престижную литературную премию Biblioblog (2012).
    На исходе лета две сестры отправляются в провинцию, чтобы освободить дом после смерти бабушки и дедушки. Но всё в этом доме вызывает в Катрин болезненные вопоминания о 16-летии, когда они также вдвоем гостили здесь, и когда произошло трагическое событие, невольной виновницей которого, возможно, она стала...
    Доп. информация: Hot Bird (13.0°E) TV5MONDE Europe DVB-S
    Награда: премия за лучшую музыку Luchon International Film Festival 2014.

    Качество видео: DVB
    Формат видео: TS
    Видео: MPEG Video 2, 720x576@1024x576 (16:9), 25 fps, ~3224 kbps avg, 0.311 bit/pixel
    Аудио: MPEG Audio 2, 2 ch, 48 kHz, 192 kbps - французский
    Формат субтитров: PGS

    MediaInfo

    GeneralID : 1 (0x1)Complete name : [apreder]Le_premier_ete(2013)DVB.tsFormat : MPEG-TSFile size : 2.29 GiBDuration : 1h 31mnOverall bit rate mode : VariableOverall bit rate : 3 596 KbpsMaximum Overall bit rate : 35.5 Mbps
    VideoID : 4113 (0x1011)Menu ID : 1 (0x1)Format : MPEG VideoFormat version : Version 2Format profile : Main@MainFormat settings, BVOP : YesFormat settings, Matrix : CustomFormat settings, GOP : VariableFormat settings, picture structure : FrameCodec ID : 2Duration : 1h 31mnBit rate mode : VariableBit rate : 3 224 KbpsWidth : 720 pixelsHeight : 576 pixelsDisplay aspect ratio : 16:9Frame rate : 25.000 fpsStandard : PALColor space : YUVChroma subsampling : 4:2:0Bit depth : 8 bitsScan type : InterlacedScan order : Top Field FirstCompression mode : LossyBits/(Pixel*Frame) : 0.311Time code of first frame : 00:00:00:00Time code source : Group of pictures headerGOP, Open/Closed : OpenGOP, Open/Closed of first frame : ClosedStream size : 2.05 GiB (90%)
    AudioID : 4352 (0x1100)Menu ID : 1 (0x1)Format : MPEG AudioFormat version : Version 1Format profile : Layer 2Mode : Joint stereoMode extension : Intensity Stereo + MS StereoCodec ID : 4Duration : 1h 31mnBit rate mode : ConstantBit rate : 192 KbpsChannel(s) : 2 channelsSampling rate : 48.0 KHzCompression mode : LossyStream size : 125 MiB (5%)Language : French
    Text #1ID : 4608 (0x1200)Menu ID : 1 (0x1)Format : PGSCodec ID : 144Language : Russian
    Text #2ID : 4609 (0x1201)Menu ID : 1 (0x1)Format : PGSCodec ID : 144Language : English
    Text #3ID : 4610 (0x1202)Menu ID : 1 (0x1)Format : PGSCodec ID : 144Language : French
    Text #4ID : 4611 (0x1203)Menu ID : 1 (0x1)Format : PGSCodec ID : 144Language : German
    Text #5ID : 4612 (0x1204)Menu ID : 1 (0x1)Format : PGSCodec ID : 144Language : Dutch
    Text #6ID : 4613 (0x1205)Menu ID : 1 (0x1)Format : PGSCodec ID : 144Language : Romanian

    Скриншот c названием фильма

    Скриншоты

    Резервные скриншоты


    -[3'011]
    Скачать .torrent

    Скачать торрент-файл бесплатно и на максимальной скорости!

    Как скачивать? · Что такое торрент? · Рейтинг и ограничения

    !ВНИМАНИЕ!
    Сайт не распространяет и не хранит электронные версии произведений, а занимается лишь лишь предоставлением доступа к создаваемому пользователями каталогу ссылок на торрент-файлы, которые содержат только списки хеш-сумм, убедительная просьба с жалобами обращаться напрямую к пользователю. Файлы для обмена на трекере предоставлены пользователями сайта, и администрация не несёт ответственности за их содержание. Просьба не заливать файлы, защищенные авторскими правами, а также файлы нелегального содержания!


    _________________
    [Профиль] [ЛС]
    Показать сообщения:    
    Ответить на тему

    Текущее время: Сегодня, в 18:10

    Часовой пояс: GMT + 2



    Вы не можете начинать темы
    Вы не можете отвечать на сообщения
    Вы не можете редактировать свои сообщения
    Вы не можете удалять свои сообщения
    Вы не можете голосовать в опросах
    Вы не можете прикреплять файлы к сообщениям
    Вы не можете скачивать файлы