BitTorrentTracker PerecTracker.org
BitTorrentTracker PerecTracker.org
    
Регистрация  ·  Вход
 
 · 
Забыли пароль?

  • (New Age) Jon Richards - The Sacred Tree - 2012, FLAC (image+.cue), lossless

    Ответить на тему
     
    Автор Сообщение

    Columb

    Создавать темы 20-Янв-2014 07:47

           

    [Цитировать]

    Jon Richards - The Sacred Tree
    Жанр: New Age
    Год издания: 2012
    Страна: England
    Аудиокодек: FLAC (*.flac)
    Тип рипа: image+.cue
    Битрейт аудио: lossless
    Продолжительность: 01:03:22
    Источник (релизер): СЛИМ (Сообщество любителей инструментальной музыки)
    Наличие сканов в содержимом раздачи: нет
    Треклист:
    01. Song of the Seasons
    02. The Triple Goddess
    03. Lady of the Forest
    04. The Sacred Tree
    05. Nature Spirits
    06. Waiting for Rain
    07. White Willow

    Лог создания рипа

    Exact Audio Copy V1.0 beta 3 from 29. August 2011
    Отчёт EAC об извлечении, выполненном 18. января 2014, 20:58
    Jon Richards / The Sacred Tree
    Дисковод: Optiarc DVD RW AD-7191S Adapter: 1 ID: 0
    Режим чтения : ДостоверностьИспользование точного потока : ДаОтключение кэша аудио : ДаИспользование указателей C2 : Нет
    Коррекция смещения при чтении : 6Способность читать области Lead-in и Lead-out : НетЗаполнение пропущенных сэмплов тишиной : ДаУдаление блоков с тишиной в начале и конце : НетПри вычислениях CRC использовались нулевые сэмплы : ДаИнтерфейс : Встроенный Win32-интерфейс для Win NT/2000
    Выходной формат : Пользовательский кодировщикВыбранный битрейт : 128 kBit/sКачество : ВысокийДобавление ID3-тега : НетУтилита сжатия : C:\Program Files\Exact Audio Copy\FLAC\FLAC.EXEДополнительные параметры : -V -8 -T "Date=%year%" -T "Genre=%genre%" %source%
    TOC извлечённого CD
    Трек | Старт | Длительность | Начальный сектор | Конечный сектор --------------------------------------------------------------------- 1 | 0:00.00 | 8:41.08 | 0 | 39082 2 | 8:41.08 | 9:31.72 | 39083 | 81979 3 | 18:13.05 | 9:16.53 | 81980 | 123732 4 | 27:29.58 | 9:33.48 | 123733 | 166755 5 | 37:03.31 | 9:14.02 | 166756 | 208307 6 | 46:17.33 | 7:04.66 | 208308 | 240173 7 | 53:22.24 | 10:00.09 | 240174 | 285182
    Характеристики диапазона извлечения и сообщения об ошибках
    Выбранный диапазон
    Имя файла H:\Jon Richards\FLAC\2012 - The Sacred Tree\Jon Richards - The Sacred Tree.wav
    Пиковый уровень 100.0 % Скорость извлечения 7.4 X Качество диапазона 100.0 % CRC теста 24B67634 CRC копии 24B67634 Копирование... OK
    Ошибок не произошло
    Конец отчёта
    ==== Контрольная сумма отчёта B9985C5C21DA5EBE0F39E66EB5CF1829D37BBBDCC1360BE5484444566CA102E7 ====

    Содержание индексной карты (.CUE)

    REM GENRE "New Age"REM DATE 2012REM DISCID 550EDA07REM COMMENT "ExactAudioCopy v1.0b3"PERFORMER "Jon Richards"TITLE "The Sacred Tree"FILE "Jon Richards - The Sacred Tree.flac" WAVE TRACK 01 AUDIO TITLE "Song of the Seasons" PERFORMER "Jon Richards" FLAGS DCP INDEX 01 00:00:00 TRACK 02 AUDIO TITLE "The Triple Goddess" PERFORMER "Jon Richards" FLAGS DCP INDEX 01 08:41:08 TRACK 03 AUDIO TITLE "Lady of the Forest" PERFORMER "Jon Richards" FLAGS DCP INDEX 01 18:13:05 TRACK 04 AUDIO TITLE "The Sacred Tree" PERFORMER "Jon Richards" FLAGS DCP INDEX 01 27:29:58 TRACK 05 AUDIO TITLE "Nature Spirits" PERFORMER "Jon Richards" FLAGS DCP INDEX 01 37:03:31 TRACK 06 AUDIO TITLE "Waiting for Rain" PERFORMER "Jon Richards" FLAGS DCP INDEX 01 46:17:33 TRACK 07 AUDIO TITLE "White Willow" PERFORMER "Jon Richards" FLAGS DCP INDEX 01 53:22:24
    Скачать .torrent

    Скачать торрент-файл бесплатно и на максимальной скорости!

    Как скачивать? · Что такое торрент? · Рейтинг и ограничения

    !ВНИМАНИЕ!
    Сайт не распространяет и не хранит электронные версии произведений, а занимается лишь лишь предоставлением доступа к создаваемому пользователями каталогу ссылок на торрент-файлы, которые содержат только списки хеш-сумм, убедительная просьба с жалобами обращаться напрямую к пользователю. Файлы для обмена на трекере предоставлены пользователями сайта, и администрация не несёт ответственности за их содержание. Просьба не заливать файлы, защищенные авторскими правами, а также файлы нелегального содержания!

    [Профиль] [ЛС]
    Показать сообщения:    
    Ответить на тему

    Текущее время: Сегодня, в 08:55

    Часовой пояс: GMT + 2



    Вы не можете начинать темы
    Вы не можете отвечать на сообщения
    Вы не можете редактировать свои сообщения
    Вы не можете удалять свои сообщения
    Вы не можете голосовать в опросах
    Вы не можете прикреплять файлы к сообщениям
    Вы не можете скачивать файлы