BitTorrentTracker PerecTracker.org
BitTorrentTracker PerecTracker.org
    
Регистрация  ·  Вход
 
 · 
Забыли пароль?

  • Неземные проделки (Эдуард Габидуллин) [2016, детский, комедия, фантастика, WEBRip]

    Ответить на тему
     
    Автор Сообщение

    Flirldrerve

    Создавать темы 04-Апр-2016 13:05

           

    [Цитировать]

    -Детский игровой фильм "Неземные проделки"-Жанр: детский, комедия, фантастика
    Год выпуска: 2016
    Продолжительность: 00:54:00-Режиссёр: Эдуард Габидуллин-В ролях: Семён Барыкин, Александр Байбаков, Тимофей Хмарин, Даниил Ибрагимхалилов, Илья Тихонов, Кристина Ревякина, Анастасия Панкова, Юлия Аржанова, Максим Клюев, Екатерина Хлебодарова и др.-Описание: Дети отдыхают в летнем лагере и становятся свидетелями необычного происшествия — светящийся энергетический шар опускается с неба прямо в голову ребенка. И оказывается, что это — инопланетянка, которая захватывает разум ребенка, с намерением повеселится на Земле в человеческом теле. Ребята, ставшие свидетелями этого происшествия, решают найти инопланетянку и разобраться с ней, иначе что же? Инопланетяне толпами будут прилетать на Землю, как на курорт, и делать из людей марионеток? Их детский план очень наивен, и, реализуя его, натворив «дел», они вызывают агрессивную реакцию своих же друзей по лагерю и вожатых. В ходе расследования их проступков, начинает проясняться ситуация с инопланетянкой, т. к. выявляется много фактов, подтверждающих ее присутствие и проделки. Все начинают верить, что инопланетянка действительно есть, и она здесь, среди них! Как ее выявить? Насколько она опасна? Почему она смогла все это сделать? И смогут ли они с ней справится?-Сэмпл: http://multi-up.com/1095653-Качество видео: WEBRip
    Формат видео: AVI-Видео: Xvid, 720x400 (16:9), 25fps, 2388kbps
    Аудио: Dolby AC3, 44100Hz, stereo, 256kbps-

    MediaInfo

    General
    Complete name : E:\Downloads\Nezemnie prodelki (2016) WEBRip.avi
    Format : AVI
    Format/Info : Audio Video Interleave
    File size : 1.00 GiB
    Duration : 54mn 1s
    Overall bit rate : 2 655 Kbps
    Writing application : XviD4PSP 6.0 / 54.29.105
    Video
    ID : 0
    Format : xvid
    Codec ID : xvid
    Duration : 54mn 0s
    Bit rate : 2 388 Kbps
    Width : 720 pixels
    Height : 400 pixels
    Display aspect ratio : 16:9
    Frame rate : 25.000 fps
    Scan type : Progressive
    Bits/(Pixel*Frame) : 0.332
    Stream size : 923 MiB (90%)
    Audio
    ID : 1
    Format : AC-3
    Format/Info : Audio Coding 3
    Mode extension : CM (complete main)
    Format settings, Endianness : Big
    Codec ID : 2000
    Duration : 54mn 1s
    Bit rate mode : Constant
    Bit rate : 256 Kbps
    Channel(s) : 2 channels
    Channel positions : Front: L R
    Sampling rate : 44.1 KHz
    Frame rate : 28.711 fps (1536 spf)
    Bit depth : 16 bits
    Compression mode : Lossy
    Stream size : 98.9 MiB (10%)
    Alignment : Aligned on interleaves
    Interleave, duration : 35 ms (0.87 video frame)

    Скриншот c названием фильма

    Скриншоты


    -

    Дополнительная информация

    Проект «Неземные проделки» — это фильм сделанный детьми для детей.
    Все специалисты на съемочной площадке, кроме режиссера и оператора — сами дети — и светооператор, и костюмеры, и гримеры, и парикмахеры, и реквизиторы. А вожатые — это не только роль в фильме, и в самой экспедиции. Они отвечали за дисциплину, за бытовые задачи. Полная самоорганизация!
    Показ его состоялся на телеканалах «Самара ГИС» и «Радость моя», а также он участвовал в 7 кинофестивалях и стал лауреатом Ульяновского форума «РегионКино -2014» в номинации «Лучший детский игровой фильм».
    Где снимался фильм?
    Фильм снимался в «Жигулевском Артеке», который находится на территории Национального парка «Самарская Лука» в живописнейшем месте у подножия Жигулевских гор на берегу Жигулевского моря.

    -

    Съемочная команда и актеры

    Скачать .torrent

    Скачать торрент-файл бесплатно и на максимальной скорости!

    Как скачивать? · Что такое торрент? · Рейтинг и ограничения

    !ВНИМАНИЕ!
    Сайт не распространяет и не хранит электронные версии произведений, а занимается лишь лишь предоставлением доступа к создаваемому пользователями каталогу ссылок на торрент-файлы, которые содержат только списки хеш-сумм, убедительная просьба с жалобами обращаться напрямую к пользователю. Файлы для обмена на трекере предоставлены пользователями сайта, и администрация не несёт ответственности за их содержание. Просьба не заливать файлы, защищенные авторскими правами, а также файлы нелегального содержания!


    _________________
    [Профиль] [ЛС]
    Показать сообщения:    
    Ответить на тему

    Текущее время: Сегодня, в 11:44

    Часовой пояс: GMT + 2



    Вы не можете начинать темы
    Вы не можете отвечать на сообщения
    Вы не можете редактировать свои сообщения
    Вы не можете удалять свои сообщения
    Вы не можете голосовать в опросах
    Вы не можете прикреплять файлы к сообщениям
    Вы не можете скачивать файлы