BitTorrentTracker PerecTracker.org
BitTorrentTracker PerecTracker.org
    
Регистрация  ·  Вход
 
 · 
Забыли пароль?

  • Король цыган / Цыганский Король / King of the Gypsies (Фрэнк Пирсон / Frank Pierson) [1978, США, драма, BDRemux 1080p] 2x DVO (НТВ+, ТВ6) + AVO (Кашкин) + Original Eng

    Ответить на тему
     
    Автор Сообщение

    Light

    Создавать темы 04-Апр-2016 13:05

           

    [Цитировать]

    Король цыган / Цыганский Король
    King of the Gypsies
    Страна: США
    Студия: Olive Films
    Жанр: драма
    Год выпуска: 1978
    Продолжительность: 01:52:17
    Перевод 1: Профессиональный (двухголосый закадровый) НТВ+
    Перевод 2: Профессиональный (двухголосый закадровый) ТВ6
    Перевод 3: Авторский (одноголосый закадровый) Александр Кашкин (Первомайский)
    Cубтитры: нет
    Оригинальная аудиодорожка: английский
    -
    Режиссер: Фрэнк Пирсон / Frank Pierson
    В ролях: Стерлинг Хейден, Шелли Уинтерс, Сьюзен Сарандон, Джадд Хёрш, Эрик Робертс, Брук Шилдс, Аннетт О’Тул, Энни Поттс, Майкл В. Гаццо, Антония Рей
    -
    Описание: Умирающий патриарх нью-йоркской цыганской общины, по суровому закону предков, обязан передать правление наследнику. Минуя своего непутевого сына, он награждает властью внука. Обойдя соперника, молодой король цыган обретает смертельного врага в лице собственного отца...

    Тип релиза: BDRemux 1080p
    Контейнер: MKV
    Видео: MPEG-4 AVC / NTSC 16:9 / 1920x1080 (1,78:1) / 25437 kbps / 23,976 fps / 0.511 bit/pixel / High@L4.1
    Аудио 1: Russian / AC3 / 2.0 Ch / 48 kHz / 192 kbps / 16 bit / DVO / НТВ+
    Аудио 2: Russian / AC3 / 2.0 Ch / 48 kHz / 192 kbps / 16 bit / DVO / ТВ6
    Аудио 3: Russian / AC3 / 2.0 Ch / 48 kHz / 192 kbps / 16 bit / AVO / Александр Кашкин (Первомайский)
    Аудио 4: English / DTS-HD Master Audio / 2.0 Ch / 48 kHz / 1850 kbps / 24-bit (DTS Core: 2.0 Ch / 48 kHz / 1509 kbps / 24-bit) / Original
    Формат субтитров: softsub (SRT)
    Навигация по главам: есть

    MediaInfo

    Общее
    Уникальный идентификатор : 174510336038597470332339206413977601788 (0x834977DA8679C1AABEAFC226671B46FC)
    Полное имя : N:\BDRemux 1080p\King of the Gypsies.1978.BDRemux.1080p.mkv
    Формат : Matroska
    Версия формата : Version 4 / Version 2
    Размер файла : 21,8 Гбайт
    Продолжительность : 1 ч. 52 м.
    Режим общего битрейта : Переменный
    Общий поток : 27,8 Мбит/сек
    Дата кодирования : UTC 2016-03-31 20:39:24
    Программа кодирования : mkvmerge v9.0.1 ('Obstacles') 64bit
    Библиотека кодирования : libebml v1.3.3 + libmatroska v1.4.4
    Видео
    Идентификатор : 1
    Формат : AVC
    Формат/Информация : Advanced Video Codec
    Профиль формата : High@L4.1
    Параметр CABAC формата : Да
    Параметр ReFrames формата : 4 кадра
    Идентификатор кодека : V_MPEG4/ISO/AVC
    Продолжительность : 1 ч. 52 м.
    Вид битрейта : Переменный
    Битрейт : 25,4 Мбит/сек
    Максимальный битрейт : 38,0 Мбит/сек
    Ширина : 1920 пикселей
    Высота : 1080 пикселей
    Соотношение сторон : 16:9
    Режим частоты кадров : Постоянный
    Частота кадров : 23,976 (24000/1001) кадра/сек
    Цветовое пространство : YUV
    Субдискретизация насыщенности : 4:2:0
    Битовая глубина : 8 бит
    Тип развёртки : Прогрессивная
    Бит/(Пиксели*Кадры) : 0.511
    Размер потока : 19,9 Гбайт (91%)
    Язык : English
    Default : Да
    Forced : Нет
    Аудио #1
    Идентификатор : 2
    Формат : AC-3
    Формат/Информация : Audio Coding 3
    Расширение режима : CM (complete main)
    Параметр Endianness формата : Big
    Идентификатор кодека : A_AC3
    Продолжительность : 1 ч. 52 м.
    Вид битрейта : Постоянный
    Битрейт : 192 Кбит/сек
    Каналы : 2 канала
    Расположение каналов : Front: L R
    Частота : 48,0 КГц
    Частота кадров : 31,250 кадров/сек (1536 spf)
    Метод сжатия : С потерями
    Размер потока : 154 Мбайт (1%)
    Заголовок : DVO / НТВ+
    Язык : Russian
    Default : Да
    Forced : Нет
    Аудио #2
    Идентификатор : 3
    Формат : AC-3
    Формат/Информация : Audio Coding 3
    Расширение режима : CM (complete main)
    Параметр Endianness формата : Big
    Идентификатор кодека : A_AC3
    Продолжительность : 1 ч. 52 м.
    Вид битрейта : Постоянный
    Битрейт : 192 Кбит/сек
    Каналы : 2 канала
    Расположение каналов : Front: L R
    Частота : 48,0 КГц
    Частота кадров : 31,250 кадров/сек (1536 spf)
    Метод сжатия : С потерями
    Размер потока : 154 Мбайт (1%)
    Заголовок : DVO / ТВ6
    Язык : Russian
    Default : Нет
    Forced : Нет
    Аудио #3
    Идентификатор : 4
    Формат : AC-3
    Формат/Информация : Audio Coding 3
    Расширение режима : CM (complete main)
    Параметр Endianness формата : Big
    Идентификатор кодека : A_AC3
    Продолжительность : 1 ч. 52 м.
    Вид битрейта : Постоянный
    Битрейт : 192 Кбит/сек
    Каналы : 2 канала
    Расположение каналов : Front: L R
    Частота : 48,0 КГц
    Частота кадров : 31,250 кадров/сек (1536 spf)
    Метод сжатия : С потерями
    Размер потока : 154 Мбайт (1%)
    Заголовок : AVO / Александр Кашкин (Первомайский)
    Язык : Russian
    Default : Нет
    Forced : Нет
    Аудио #4
    Идентификатор : 5
    Формат : DTS
    Формат/Информация : Digital Theater Systems
    Профиль формата : MA / Core
    Режим : 16
    Параметр Endianness формата : Big
    Идентификатор кодека : A_DTS
    Продолжительность : 1 ч. 52 м.
    Вид битрейта : Переменный / Постоянный
    Битрейт : 1850 Кбит/сек / 1509 Кбит/сек
    Каналы : 2 канала
    Расположение каналов : Front: L R
    Частота : 48,0 КГц
    Частота кадров : 93,750 кадра/сек (512 spf)
    Битовая глубина : 24 бит
    Метод сжатия : Без потерь / Lossy
    Размер потока : 1,45 Гбайт (7%)
    Заголовок : Original
    Язык : English
    Default : Нет
    Forced : Нет
    Меню
    00:00:00.000 : en:
    00:00:10.927 : en:
    00:12:39.091 : en:
    00:28:24.953 : en:
    00:39:30.242 : en:
    00:56:12.285 : en:
    01:13:57.015 : en:
    01:25:18.279 : en:
    01:39:01.602 : en:
    01:52:28.700 : en:

    Скриншоты

    Скачать .torrent

    Скачать торрент-файл бесплатно и на максимальной скорости!

    Как скачивать? · Что такое торрент? · Рейтинг и ограничения

    !ВНИМАНИЕ!
    Сайт не распространяет и не хранит электронные версии произведений, а занимается лишь лишь предоставлением доступа к создаваемому пользователями каталогу ссылок на торрент-файлы, которые содержат только списки хеш-сумм, убедительная просьба с жалобами обращаться напрямую к пользователю. Файлы для обмена на трекере предоставлены пользователями сайта, и администрация не несёт ответственности за их содержание. Просьба не заливать файлы, защищенные авторскими правами, а также файлы нелегального содержания!


    _________________
    [Профиль] [ЛС]
    Показать сообщения:    
    Ответить на тему

    Текущее время: Сегодня, в 02:27

    Часовой пояс: GMT + 2



    Вы не можете начинать темы
    Вы не можете отвечать на сообщения
    Вы не можете редактировать свои сообщения
    Вы не можете удалять свои сообщения
    Вы не можете голосовать в опросах
    Вы не можете прикреплять файлы к сообщениям
    Вы не можете скачивать файлы