BitTorrentTracker PerecTracker.org
BitTorrentTracker PerecTracker.org
    
Регистрация  ·  Вход
 
 · 
Забыли пароль?

  • Охотники на гангстеров / Gangster Squad (Рубен Флейшер / Ruben Fleischer) [2013, США, боевик, триллер, драма, криминал, BDRemux 1080p] Dub (Мосфильм) + 2x AVO(Немахов, Володарский) + Original (Eng) + Sub Rus, Eng

    Ответить на тему
     
    Автор Сообщение

    Light

    Создавать темы 04-Апр-2016 13:05

           

    [Цитировать]

    Охотники на гангстеров / Gangster Squad«Ни имён. Ни закона. Ни жалости»
    Страна: США
    Жанр: боевик, триллер, драма, криминал.
    Год выпуска: 2013
    Продолжительность:01:52:54
    Перевод 1: Профессиональный (дублированный) |Мосфильм_2012г|
    Перевод 2: Авторский (одноголосый закадровый) |Немахов, Юрий Геннадьевич|
    Перевод 3: Авторский (одноголосый закадровый) |Володарский, Леонид Вениаминович|
    Cубтитры: русские, украинские, английские
    Оригинальная аудиодорожка: английский
    Режиссер: Рубен Флейшер / Ruben Fleischer
    В ролях: Джош Бролин, Райан Гослинг, Ник Нолти, Эмма Стоун, Энтони Маки, Джованни Рибизи, Майкл Пенья, Роберт Патрик, Шон Пенн, Холт МакКэллани.
    Описание: Лос-Анджелес, 1949 год. Уроженец Бруклина, жестокий главарь банды Микки Коэн держит город в ежовых рукавицах, собирая «грязные» деньги от торговли наркотиками, оружием и проституции, и — если все пойдет, как надо, — к Западу от Чикаго мышь не пискнет без его ведома. Защищают его не только его же головорезы, но и находящиеся у него «на крючке» полиция и политики. Этого хватит, чтобы запугать даже самых смелых, закаленных улицей копов… кроме, пожалуй, небольшой тайной группы сотрудников полицейского департамента Лос-Анджелеса во главе с сержантом Джоном О’Мара и Джерри Вутерсом, которые объединились, чтобы попытаться уничтожить преступный мир Коэна.
    Сэмпл: https://yadi.sk/i/7-mVw3I4qfZo7
    Тип релиза: BDRemux 1080p
    Контейнер: MKV
    Видео: MPEG-4 AVC Video / 20640 kbps / 1080p / 23,976 fps / 16:9 / High Profile 4.1
    Аудио 1: Russian: 48 kHz, AC3, 3/2 (L,C,R,l,r) + LFE ch, ~ 640.00 kbps avg |Мосфильм_2012г|
    Аудио 2: Ukrainian: 48 kHz, AC3, 3/2 (L,C,R,l,r) + LFE ch, ~ 640.00 kbps avg |Blu-ray|
    Аудио 3: Russian DTS-HD MA 5.1 48 kHz 2239 kbps 16-bit (DTS Core: 5.1 / 48 kHz / 1509 kbps / 16-bit)|Немахов, Юрий Геннадьевич|
    Аудио 4: Russian DTS-HD MA 5.1 48 kHz 2240 kbps 16-bit (DTS Core: 5.1 / 48 kHz / 1509 kbps / 16-bit)|Володарский, Леонид Вениаминович|
    Аудио 5: English DTS-HD MA 5.1 48 kHz 2233 kbps 16-bit (DTS Core: 5.1 / 48 kHz / 1509 kbps / 16-bit)|original|
    Аудио 6: English AC3 2.0, 192 kbps, 48 kHz |Commentary with Director Ruben Fleischer|
    Формат субтитров: softsub (SRT)

    MediaInfo

    Общее
    Уникальный идентификатор : 253487029516363816744999515322483986427 (0xBEB3D3790E993A7E891A44CE23D7CFFB)
    Полное имя : D:\MOVIE\Nicholas King_[Nick]_Nolte & Robert Hammond Patrick, Jr. & Antonino Giovanni Ribisi & Josh James Brolin & Anthony D. Mackie & Michael Anthony Peña\Gangster Squad_2013г\Gangster Squad_2013г.mkv
    Формат : Matroska
    Версия формата : Version 4 / Version 2
    Размер файла : 22,7 Гбайт
    Продолжительность : 1 ч. 52 м.
    Режим общего битрейта : Переменный
    Общий поток : 28,8 Мбит/сек
    Название фильма : Gangster Squad_2013г
    Дата кодирования : UTC 2016-04-01 15:27:15
    Программа кодирования : mkvmerge v6.9.1 ('Blue Panther') 64bit built on Apr 18 2014 18:23:38
    Библиотека кодирования : libebml v1.3.0 + libmatroska v1.4.1
    Видео
    Идентификатор : 1
    Формат : AVC
    Формат/Информация : Advanced Video Codec
    Профиль формата : High@L4.1
    Параметр CABAC формата : Да
    Параметр ReFrames формата : 2 кадра
    Идентификатор кодека : V_MPEG4/ISO/AVC
    Продолжительность : 1 ч. 52 м.
    Вид битрейта : Переменный
    Ширина : 1920 пикселей
    Высота : 1080 пикселей
    Соотношение сторон : 16:9
    Режим частоты кадров : Постоянный
    Частота кадров : 23,976 кадра/сек
    Цветовое пространство : YUV
    Субдискретизация насыщенности : 4:2:0
    Битовая глубина : 8 бит
    Тип развёртки : Прогрессивная
    Заголовок : Gangster Squad_2013г
    Язык : English
    Default : Да
    Forced : Нет
    Аудио #1
    Идентификатор : 2
    Формат : AC-3
    Формат/Информация : Audio Coding 3
    Расширение режима : CM (complete main)
    Параметр Endianness формата : Big
    Идентификатор кодека : A_AC3
    Продолжительность : 1 ч. 52 м.
    Вид битрейта : Постоянный
    Битрейт : 640 Кбит/сек
    Каналы : 6 каналов
    Расположение каналов : Front: L C R, Side: L R, LFE
    Частота : 48,0 КГц
    Битовая глубина : 16 бит
    Метод сжатия : С потерями
    Размер потока : 517 Мбайт (2%)
    Заголовок : |Дубляж_[Мосфильм]_2012г|
    Язык : Russian
    Default : Да
    Forced : Нет
    Аудио #2
    Идентификатор : 3
    Формат : AC-3
    Формат/Информация : Audio Coding 3
    Расширение режима : CM (complete main)
    Параметр Endianness формата : Big
    Идентификатор кодека : A_AC3
    Продолжительность : 1 ч. 52 м.
    Вид битрейта : Постоянный
    Битрейт : 640 Кбит/сек
    Каналы : 6 каналов
    Расположение каналов : Front: L C R, Side: L R, LFE
    Частота : 48,0 КГц
    Битовая глубина : 16 бит
    Метод сжатия : С потерями
    Размер потока : 517 Мбайт (2%)
    Заголовок : |Дубляж|
    Язык : Ukrainian
    Default : Нет
    Forced : Нет
    Аудио #3
    Идентификатор : 4
    Формат : DTS
    Формат/Информация : Digital Theater Systems
    Профиль формата : MA / Core
    Режим : 16
    Параметр Endianness формата : Big
    Идентификатор кодека : A_DTS
    Продолжительность : 1 ч. 52 м.
    Вид битрейта : Переменный
    Битрейт : Неизвестно / 1509 Кбит/сек
    Каналы : 6 каналов
    Расположение каналов : Front: L C R, Side: L R, LFE
    Частота : 48,0 КГц
    Битовая глубина : 16 бит
    Метод сжатия : Без потерь / Lossy
    Заголовок : |Немахов, Юрий Геннадьевич|
    Язык : Russian
    Default : Нет
    Forced : Нет
    Аудио #4
    Идентификатор : 5
    Формат : DTS
    Формат/Информация : Digital Theater Systems
    Профиль формата : MA / Core
    Режим : 16
    Параметр Endianness формата : Big
    Идентификатор кодека : A_DTS
    Продолжительность : 1 ч. 52 м.
    Вид битрейта : Переменный
    Битрейт : Неизвестно / 1509 Кбит/сек
    Каналы : 6 каналов
    Расположение каналов : Front: L C R, Side: L R, LFE
    Частота : 48,0 КГц
    Битовая глубина : 16 бит
    Метод сжатия : Без потерь / Lossy
    Заголовок : |Володарский, Леонид Вениаминович|
    Язык : Russian
    Default : Нет
    Forced : Нет
    Аудио #5
    Идентификатор : 6
    Формат : DTS
    Формат/Информация : Digital Theater Systems
    Профиль формата : MA / Core
    Режим : 16
    Параметр Endianness формата : Big
    Идентификатор кодека : A_DTS
    Продолжительность : 1 ч. 52 м.
    Вид битрейта : Переменный
    Битрейт : Неизвестно / 1509 Кбит/сек
    Каналы : 6 каналов
    Расположение каналов : Front: L C R, Side: L R, LFE
    Частота : 48,0 КГц
    Битовая глубина : 16 бит
    Метод сжатия : Без потерь / Lossy
    Заголовок : |original|
    Язык : English
    Default : Нет
    Forced : Нет
    Аудио #6
    Идентификатор : 7
    Формат : AC-3
    Формат/Информация : Audio Coding 3
    Профиль формата : Dolby Digital
    Расширение режима : CM (complete main)
    Параметр Endianness формата : Big
    Идентификатор кодека : A_AC3
    Продолжительность : 1 ч. 52 м.
    Вид битрейта : Постоянный
    Битрейт : 192 Кбит/сек
    Каналы : 2 канала
    Расположение каналов : Front: L R
    Частота : 48,0 КГц
    Битовая глубина : 16 бит
    Метод сжатия : С потерями
    Размер потока : 155 Мбайт (1%)
    Заголовок : |commentary with Director Ruben Fleischer|
    Язык : English
    Default : Нет
    Forced : Нет
    Текст #1
    Идентификатор : 8
    Формат : UTF-8
    Идентификатор кодека : S_TEXT/UTF8
    Идентификатор кодека/Информация : UTF-8 Plain Text
    Заголовок : forced
    Язык : Russian
    Default : Да
    Forced : Нет
    Текст #2
    Идентификатор : 9
    Формат : UTF-8
    Идентификатор кодека : S_TEXT/UTF8
    Идентификатор кодека/Информация : UTF-8 Plain Text
    Заголовок : full
    Язык : Russian
    Default : Нет
    Forced : Нет
    Текст #3
    Идентификатор : 10
    Формат : UTF-8
    Идентификатор кодека : S_TEXT/UTF8
    Идентификатор кодека/Информация : UTF-8 Plain Text
    Заголовок : Евгений Воронин_full_
    Язык : Russian
    Default : Нет
    Forced : Нет
    Текст #4
    Идентификатор : 11
    Формат : UTF-8
    Идентификатор кодека : S_TEXT/UTF8
    Идентификатор кодека/Информация : UTF-8 Plain Text
    Заголовок : commentary
    Язык : Russian
    Default : Нет
    Forced : Нет
    Текст #5
    Идентификатор : 12
    Формат : UTF-8
    Идентификатор кодека : S_TEXT/UTF8
    Идентификатор кодека/Информация : UTF-8 Plain Text
    Заголовок : full
    Язык : Ukrainian
    Default : Нет
    Forced : Нет
    Текст #6
    Идентификатор : 13
    Формат : UTF-8
    Идентификатор кодека : S_TEXT/UTF8
    Идентификатор кодека/Информация : UTF-8 Plain Text
    Заголовок : full
    Язык : English
    Default : Нет
    Forced : Нет
    Текст #7
    Идентификатор : 14
    Формат : UTF-8
    Идентификатор кодека : S_TEXT/UTF8
    Идентификатор кодека/Информация : UTF-8 Plain Text
    Заголовок : SDH_full_
    Язык : English
    Default : Нет
    Forced : Нет
    Текст #8
    Идентификатор : 15
    Формат : UTF-8
    Идентификатор кодека : S_TEXT/UTF8
    Идентификатор кодека/Информация : UTF-8 Plain Text
    Заголовок : commentary
    Язык : English
    Default : Нет
    Forced : Нет
    Меню
    00:00:00.000 : en:00:00:00.000
    00:09:53.635 : en:00:09:53.635
    00:20:51.167 : en:00:20:51.167
    00:28:36.173 : en:00:28:36.173
    00:39:22.860 : en:00:39:22.860
    00:49:25.462 : en:00:49:25.462
    00:59:59.262 : en:00:59:59.262
    01:09:23.493 : en:01:09:23.493
    01:20:05.259 : en:01:20:05.259
    01:31:01.539 : en:01:31:01.539
    01:38:50.341 : en:01:38:50.341
    01:44:11.370 : en:01:44:11.370

    Скриншоты



    доп.фотки


    фотки с премьеры фильма


    Интересные Факты

    Каждое утро перед съемками Шону Пенну по 3 часа наносили макияж.
    Отель и виллы под названием «The Garden of Allah» существовали в реальной жизни. И были расположены на Бульваре Сансет 8152 в Западном Голливуде, Калифорния.
    В первых трейлерах фильма была мафиозная перестрелка в кинотеатре, но после трагедии на премьере «Темный рыцарь: Возрождение легенды», выход фильма был перенесен с сентября 2012 на январь 2013, сцена была вырезана, а остальное перемонтировано.
    Джейми Фокс рассматривался на роль Коулмана Харриса.
    Эшли Грин, Тереза Палмер, Камилла Белль, Элисон Мичалка, Лили Коллинз, Эмми Россам, Аманда Сайфред и Мэгги Грэйс пробовались на роль Грэйс Фарадэй.
    Брайан Крэнстон прошел пробы на роль Макса Кеннарда, но отказался от участия из-за проблем с расписанием съемок фильма «Операция «Арго»» (2012).
    Эми Адамс и Кейт Уинслет рассматривались на роль Конни О`Мара.
    Адам Броди, Джоэл Эдгертон, Люк Эванс и Джозеф Гордон-Левитт были близки к получению роли сержанта Джерри Вутерса, но роль была отдана Райану Гослингу.
    Персонаж Райана Гослинга в одной сцене шутит о том, что единственный знаменитый Микки, о котором он слышал, это Микки Маус. Будучи ребенком, Райан Гослинг снимался в сериале «ММС» (1989-1994).
    Цитата:
    Цитата:

    За перевод Л. Володарского большое спасибо пользователям форума hdtracker: audiolubitel, foxlight, Hattori Hanzo, shitman82, John Ryder, karantin66, KpucTo161, Maldivess, nimph, olegsoleg, Rolly Tyler, Vimann, ZeRoNe, denis_mgn_1987, -Джосс-, SavineX, Letyoha3, therox, Role, vadamk, dunhill200, Chistobaev, lexal, mamachucha66, Xerman13, Диммон, Schmulke, v111o, Denis2251.
    Скачать .torrent

    Скачать торрент-файл бесплатно и на максимальной скорости!

    Как скачивать? · Что такое торрент? · Рейтинг и ограничения

    !ВНИМАНИЕ!
    Сайт не распространяет и не хранит электронные версии произведений, а занимается лишь лишь предоставлением доступа к создаваемому пользователями каталогу ссылок на торрент-файлы, которые содержат только списки хеш-сумм, убедительная просьба с жалобами обращаться напрямую к пользователю. Файлы для обмена на трекере предоставлены пользователями сайта, и администрация не несёт ответственности за их содержание. Просьба не заливать файлы, защищенные авторскими правами, а также файлы нелегального содержания!


    _________________
    [Профиль] [ЛС]
    Показать сообщения:    
    Ответить на тему

    Текущее время: Сегодня, в 12:00

    Часовой пояс: GMT + 2



    Вы не можете начинать темы
    Вы не можете отвечать на сообщения
    Вы не можете редактировать свои сообщения
    Вы не можете удалять свои сообщения
    Вы не можете голосовать в опросах
    Вы не можете прикреплять файлы к сообщениям
    Вы не можете скачивать файлы