BitTorrentTracker PerecTracker.org
BitTorrentTracker PerecTracker.org
    
Регистрация  ·  Вход
 
 · 
Забыли пароль?

  • (New Age, Relax) Steve Kindler and Teja Bell - Dolphin Smiles - 1987, FLAC (tracks+.cue), lossless

    Ответить на тему
     
    Автор Сообщение

    Columb

    Создавать темы 19-Янв-2014 19:57

           

    [Цитировать]

    Steve Kindler and Teja Bell - Dolphin Smiles
    Жанр: New Age, Relax
    Год издания: 1987
    Аудиокодек: FLAC (*.flac)
    Тип рипа: tracks+.cue
    Битрейт аудио: lossless
    Продолжительность: 00:43:58
    Источник (релизер): internet
    Наличие сканов в содержимом раздачи: да
    Треклист:
    01. Windsurfer
    02. Kaimana
    03. The Dolphin Suite
    04. Leeward Sail
    05. Sounding
    06. The Farthest Shore

    Лог создания рипа

    Exact Audio Copy V1.0 beta 1 from 15. November 2010
    Archivo Log de extracciones desde 22. Mayo 2012, 20:35
    Steve Kindler and Teja Bell/Dolphin Smiles / Dolphin Smiles
    Usar unidad : TSSTcorpCDDVDW SH-S223C Adapter: 0 ID: 1
    Modo de Lectura : : SeguroUtilizar corriente precisa : S�Cach� de audio por defecto : S�Utilizar los punteros C2 : No
    Correcci�n de Desplazamiento de Lectura : : 697Sobreleer tanto en Lead-In como en Lead-Out : NoRellenar las muestras faltantes con silencios : S�Eliminar silencios inicial y final : NoMuestras nulas usadas en los calculos de CRC : S�Interfaz usada : Interfaz propio de Win32 para Windowns NT y 2000Manejo de huecos : Anexada a la pista anterior
    Formato de Salida utilizado : : Compresor definido por el UsuarioVelocidad de bits seleccionada : 768 kBit/sCalidad : AltaA�adir ID3 tag : Nolinea de comandos del compresor : C:\Program Files (x86)\Exact Audio Copy\Flac\flac.exeOpciones adicionales en l�nea de comandos : : -8 -V -T "artist=%a" -T "title=%t" -T "album=%g" -T "date=%y" -T "tracknumber=%n" -T "genre=%m" %s
    TOC extra�dos del CD
    Pista | Inicio | Longitud | Inicio del sector | Fin del sector ------------------------------------------------------------------ 1 | 0:00.00 | 4:31.25 | 0 | 20349 2 | 4:31.25 | 5:09.22 | 20350 | 43546 3 | 9:40.47 | 12:44.55 | 43547 | 100901 4 | 22:25.27 | 6:23.15 | 100902 | 129641 5 | 28:48.42 | 8:03.05 | 129642 | 165871 6 | 36:51.47 | 7:08.53 | 165872 | 198024
    Pista 1
    Nombre de Archivo C:\Users\Anton\Music\ORIGINALES\Steve Kindler and Teja Bell,Dolphin Smiles - 01 - Windsurfer.wav
    Longitud Pre-gap 0:00:02.00
    Nivel Pico 88.8 % Velocidad de extracci�n 2.0 X Calidad de Pista 100.0 % Copiar CRC BFEC6169 Copia OK
    Pista 2
    Nombre de Archivo C:\Users\Anton\Music\ORIGINALES\Steve Kindler and Teja Bell,Dolphin Smiles - 02 - Kaimana.wav
    Longitud Pre-gap 0:00:03.00
    Nivel Pico 76.8 % Velocidad de extracci�n 2.2 X Calidad de Pista 100.0 % Copiar CRC 521864AA Copia OK
    Pista 3
    Nombre de Archivo C:\Users\Anton\Music\ORIGINALES\Steve Kindler and Teja Bell,Dolphin Smiles - 03 - The Dolphin Suite.wav
    Nivel Pico 76.1 % Velocidad de extracci�n 2.2 X Calidad de Pista 99.9 % Copiar CRC 5BE45B3C Copia OK
    Pista 4
    Nombre de Archivo C:\Users\Anton\Music\ORIGINALES\Steve Kindler and Teja Bell,Dolphin Smiles - 04 - Leeward Sail.wav
    Longitud Pre-gap 0:00:01.25
    Nivel Pico 86.0 % Velocidad de extracci�n 2.0 X Calidad de Pista 99.9 % Copiar CRC 8B3C0A3A Copia OK
    Pista 5
    Nombre de Archivo C:\Users\Anton\Music\ORIGINALES\Steve Kindler and Teja Bell,Dolphin Smiles - 05 - Sounding.wav
    Longitud Pre-gap 0:00:01.12
    Nivel Pico 50.7 % Velocidad de extracci�n 2.2 X Calidad de Pista 100.0 % Copiar CRC C87DD2F2 Copia OK
    Pista 6
    Nombre de Archivo C:\Users\Anton\Music\ORIGINALES\Steve Kindler and Teja Bell,Dolphin Smiles - 06 - The Farthest Shore.wav
    Nivel Pico 61.5 % Velocidad de extracci�n 2.0 X Calidad de Pista 99.9 % Copiar CRC FC3BAA8F Copia OK
    Sin Errores
    Final del Informe
    ==== Log checksum 9334B7C985E07887084435E703400679AD1B5CD525F3BDE84E6261DDDB82B34C ====

    Содержание индексной карты (.CUE)

    REM GENRE "New Age"REM DATE 1987REM DISCID 3F0A5006REM COMMENT "ExactAudioCopy v1.0b1"PERFORMER "Steve Kindler and Teja Bell/Dolphin Smiles"TITLE "Dolphin Smiles"FILE "Steve Kindler and Teja Bell,Dolphin Smiles - 01 - Windsurfer.wav" WAVE TRACK 01 AUDIO TITLE "Windsurfer" PERFORMER "Steve Kindler and Teja Bell/Dolphin Smiles" INDEX 01 00:00:00 TRACK 02 AUDIO TITLE "Kaimana" PERFORMER "Steve Kindler and Teja Bell/Dolphin Smiles" INDEX 00 04:28:25FILE "Steve Kindler and Teja Bell,Dolphin Smiles - 02 - Kaimana.wav" WAVE INDEX 01 00:00:00FILE "Steve Kindler and Teja Bell,Dolphin Smiles - 03 - The Dolphin Suite.wav" WAVE TRACK 03 AUDIO TITLE "The Dolphin Suite" PERFORMER "Steve Kindler and Teja Bell/Dolphin Smiles" INDEX 01 00:00:00 TRACK 04 AUDIO TITLE "Leeward Sail" PERFORMER "Steve Kindler and Teja Bell/Dolphin Smiles" INDEX 00 12:43:30FILE "Steve Kindler and Teja Bell,Dolphin Smiles - 04 - Leeward Sail.wav" WAVE INDEX 01 00:00:00 TRACK 05 AUDIO TITLE "Sounding" PERFORMER "Steve Kindler and Teja Bell/Dolphin Smiles" INDEX 00 06:22:03FILE "Steve Kindler and Teja Bell,Dolphin Smiles - 05 - Sounding.wav" WAVE INDEX 01 00:00:00FILE "Steve Kindler and Teja Bell,Dolphin Smiles - 06 - The Farthest Shore.wav" WAVE TRACK 06 AUDIO TITLE "The Farthest Shore" PERFORMER "Steve Kindler and Teja Bell/Dolphin Smiles" INDEX 01 00:00:00
    Скачать .torrent

    Скачать торрент-файл бесплатно и на максимальной скорости!

    Как скачивать? · Что такое торрент? · Рейтинг и ограничения

    !ВНИМАНИЕ!
    Сайт не распространяет и не хранит электронные версии произведений, а занимается лишь лишь предоставлением доступа к создаваемому пользователями каталогу ссылок на торрент-файлы, которые содержат только списки хеш-сумм, убедительная просьба с жалобами обращаться напрямую к пользователю. Файлы для обмена на трекере предоставлены пользователями сайта, и администрация не несёт ответственности за их содержание. Просьба не заливать файлы, защищенные авторскими правами, а также файлы нелегального содержания!

    [Профиль] [ЛС]
    Показать сообщения:    
    Ответить на тему

    Текущее время: Сегодня, в 18:55

    Часовой пояс: GMT + 2



    Вы не можете начинать темы
    Вы не можете отвечать на сообщения
    Вы не можете редактировать свои сообщения
    Вы не можете удалять свои сообщения
    Вы не можете голосовать в опросах
    Вы не можете прикреплять файлы к сообщениям
    Вы не можете скачивать файлы