BitTorrentTracker PerecTracker.org
BitTorrentTracker PerecTracker.org
    
Регистрация  ·  Вход
 
 · 
Забыли пароль?

  • Защитник / Concussion (Питер Ландесман / Peter Landesman) [2015, США, драма, биография, спорт, BDRip-AVC] Dub + Original+ Sub (rus, eng)

    Ответить на тему
     
    Автор Сообщение

    Light

    Создавать темы 04-Апр-2016 04:51

           

    [Цитировать]

    Защитник / Concussion«Even Legends Need a Hero»-Страна: США
    Жанр: драма, биография, спорт
    Год выпуска: 2015
    Продолжительность: 02:02:49
    Перевод: Профессиональный (полное дублирование) (iTunes)
    Оригинальная аудиодорожка: английский
    Cубтитры: русские (форс., полные), английские (полные, SDH)
    Навигация по главам: есть
    Режиссер: Питер Ландесман / Peter Landesman
    В ролях: Уилл Смит, Алек Болдуин, Альберт Брукс, Гугу Эмбата-Ро, Дэвид Морс, Арлисс Ховард, Майк О’Мэлли, Эдди Марсан, Хилл Харпер, Адевале Акиннуойе-Агбадже, Стивен Мойер, Ричард Т. Джонс, Пол Райзер, Люк Уилсон, Сара Линдсей, Мэттью Уиллиг, Битси Таллок, Кевин Джиггеттс, Гэри Граббс, Рэнди Ковиц
    Описание: Америка потрясена чередой неожиданных и необъяснимых смертей знаменитых спортсменов. Разгадать загадку предстоит талантливому молодому нейрохирургу, но, как оказалось, не все готовы услышать жестокую правду…

    Качество видео: BDRip-AVC (исходник - BDRemux|CONCUSSION_REMUX_HDCLUB)
    Формат видео: MKV
    Видео: x264, 1152:480 (2.40:1), 23,976 fps, ~2620 kbps, 0.198 bit/pixel
    Аудио 1: 48 kHz, AC3 Dolby Digital, 3/2 (L,C,R,l,r) + LFE ch, ~384 kbps [русский]
    Аудио 2: 48 kHz, AC3 Dolby Digital, 3/2 (L,C,R,l,r) + LFE ch, ~384 kbps [английский]
    Формат субтитров: softsub (SRT)
    MediaInfo | x264 log
    Format : Matroska
    Format version : Version 4 / Version 2
    File size : 2.91 GiB
    Duration : 2h 2mn
    Overall bit rate : 3 390 Kbps
    Movie name : Защитник / Concussion (2015) :: AFM ::
    Encoded date : UTC 2016-04-03 21:03:42
    Writing application : mkvmerge v8.3.0 ('Over the Horizon') 32bit
    Writing library : libebml v1.3.1 + libmatroska v1.4.2
    Video
    ID : 1
    Format : AVC
    Format/Info : Advanced Video Codec
    Format profile : High@L4.1
    Format settings, CABAC : Yes
    Format settings, ReFrames : 10 frames
    Codec ID : V_MPEG4/ISO/AVC
    Duration : 2h 2mn
    Bit rate : 2 620 Kbps
    Width : 1 152 pixels
    Height : 480 pixels
    Display aspect ratio : 2.40:1
    Frame rate mode : Constant
    Frame rate : 23.976 fps
    Color space : YUV
    Chroma subsampling : 4:2:0
    Bit depth : 8 bits
    Scan type : Progressive
    Bits/(Pixel*Frame) : 0.198
    Stream size : 2.19 GiB (75%)
    Title : BDRip by AFM [RuTracker.org]
    Writing library : x264 core 148 r2665+53 6629127 t_mod_Custom [8-bit@all X86_64]
    Encoding settings : cabac=1 / ref=10 / deblock=1:-3:-3 / analyse=0x3:0x113 / me=umh / subme=10 / psy=1 / fade_compensate=0.00 / psy_rd=1.00:0.00 / mixed_ref=1 / me_range=32 / chroma_me=1 / trellis=2 / 8x8dct=1 / cqm=0 / deadzone=21,11 / fast_pskip=0 / chroma_qp_offset=-2 / threads=6 / lookahead_threads=1 / sliced_threads=0 / nr=0 / decimate=0 / interlaced=0 / bluray_compat=0 / constrained_intra=0 / fgo=0 / bframes=11 / b_pyramid=2 / b_adapt=2 / b_bias=0 / direct=3 / weightb=1 / open_gop=0 / weightp=2 / keyint=250 / keyint_min=23 / scenecut=40 / intra_refresh=0 / rc_lookahead=40 / rc=2pass / mbtree=0 / bitrate=2620 / ratetol=1.0 / qcomp=0.65 / qpmin=0:0:0 / qpmax=69:69:69 / qpstep=4 / cplxblur=20.0 / qblur=0.5 / vbv_maxrate=50000 / vbv_bufsize=62500 / nal_hrd=none / filler=0 / ip_ratio=1.35 / pb_ratio=1.30 / aq=3:0.80 / aq-sensitivity=10.00 / aq-factor=1.00:1.00:1.00 / aq2=0 / aq3=0
    Language : English
    Default : Yes
    Forced : No
    Audio #1
    ID : 2
    Format : AC-3
    Format/Info : Audio Coding 3
    Mode extension : CM (complete main)
    Format settings, Endianness : Big
    Codec ID : A_AC3
    Duration : 2h 2mn
    Bit rate mode : Constant
    Bit rate : 384 Kbps
    Channel(s) : 6 channels
    Channel positions : Front: L C R, Side: L R, LFE
    Sampling rate : 48.0 KHz
    Compression mode : Lossy
    Stream size : 337 MiB (11%)
    Title : Dub, AC3 5.1 ~384 kbps
    Language : Russian
    Default : Yes
    Forced : No
    Audio #2
    ID : 3
    Format : AC-3
    Format/Info : Audio Coding 3
    Mode extension : CM (complete main)
    Format settings, Endianness : Big
    Codec ID : A_AC3
    Duration : 2h 2mn
    Bit rate mode : Constant
    Bit rate : 384 Kbps
    Channel(s) : 6 channels
    Channel positions : Front: L C R, Side: L R, LFE
    Sampling rate : 48.0 KHz
    Compression mode : Lossy
    Stream size : 337 MiB (11%)
    Title : Original, AC3 5.1 ~384 kbps
    Language : English
    Default : No
    Forced : No
    Text #1
    ID : 4
    Format : UTF-8
    Codec ID : S_TEXT/UTF8
    Codec ID/Info : UTF-8 Plain Text
    Title : forced
    Language : Russian
    Default : Yes
    Forced : No
    Text #2
    ID : 5
    Format : UTF-8
    Codec ID : S_TEXT/UTF8
    Codec ID/Info : UTF-8 Plain Text
    Language : Russian
    Default : No
    Forced : No
    Text #3
    ID : 6
    Format : UTF-8
    Codec ID : S_TEXT/UTF8
    Codec ID/Info : UTF-8 Plain Text
    Language : English
    Default : No
    Forced : No
    Text #4
    ID : 7
    Format : UTF-8
    Codec ID : S_TEXT/UTF8
    Codec ID/Info : UTF-8 Plain Text
    Title : SDH
    Language : English
    Default : No
    Forced : No
    Menu
    00:00:00.000 : en:Chapter 1
    00:07:26.696 : en:Chapter 2
    00:14:41.631 : en:Chapter 3
    00:21:48.098 : en:Chapter 4
    00:29:36.566 : en:Chapter 5
    00:37:42.927 : en:Chapter 6
    00:43:44.539 : en:Chapter 7
    00:51:30.713 : en:Chapter 8
    00:59:35.447 : en:Chapter 9
    01:06:58.264 : en:Chapter 10
    01:13:07.508 : en:Chapter 11
    01:22:18.308 : en:Chapter 12
    01:30:34.721 : en:Chapter 13
    01:38:15.098 : en:Chapter 14
    01:46:46.942 : en:Chapter 15
    01:53:34.808 : en:Chapter 16

    x264

    x264 [info]: frame I:1354 Avg QP:12.40 size: 83724
    x264 [info]: frame P:39547 Avg QP:14.93 size: 29301
    x264 [info]: frame B:135786 Avg QP:17.32 size: 8404
    x264 [info]: consecutive B-frames: 2.4% 3.4% 8.2% 26.4% 15.5% 26.0% 6.5% 7.9% 1.7% 0.6% 0.5% 1.0%
    x264 [info]: mb I I16..4: 4.3% 78.5% 17.2%
    x264 [info]: mb P I16..4: 0.9% 11.2% 1.3% P16..4: 35.1% 29.7% 19.1% 0.0% 0.0% skip: 2.7%
    x264 [info]: mb B I16..4: 0.0% 0.5% 0.1% B16..8: 38.5% 16.0% 4.7% direct: 5.0% skip:35.3% L0:44.2% L1:44.8% BI:11.0%
    x264 [info]: 8x8 transform intra:82.6% inter:53.1%
    x264 [info]: direct mvs spatial:99.3% temporal:0.7%
    x264 [info]: coded y,uvDC,uvAC intra: 92.0% 76.9% 59.0% inter: 26.0% 14.2% 7.1%
    x264 [info]: i16 v,h,dc,p: 27% 17% 11% 45%
    x264 [info]: i8 v,h,dc,ddl,ddr,vr,hd,vl,hu: 11% 11% 10% 9% 12% 12% 12% 11% 12%
    x264 [info]: i4 v,h,dc,ddl,ddr,vr,hd,vl,hu: 10% 10% 4% 10% 15% 14% 13% 11% 12%
    x264 [info]: i8c dc,h,v,p: 44% 24% 18% 14%
    x264 [info]: Weighted P-Frames: Y:97.4% UV:1.2%
    x264 [info]: ref P L0: 46.0% 8.0% 17.9% 6.9% 6.0% 4.6% 4.1% 2.2% 2.1% 1.9% 0.3% 0.0%
    x264 [info]: ref B L0: 67.4% 13.9% 6.8% 3.8% 2.6% 2.4% 2.0% 0.8% 0.3%
    x264 [info]: ref B L1: 91.8% 8.2%
    x264 [info]: kb/s:2619.79

    Скриншоты

    с названием

    Скачать .torrent

    Скачать торрент-файл бесплатно и на максимальной скорости!

    Как скачивать? · Что такое торрент? · Рейтинг и ограничения

    !ВНИМАНИЕ!
    Сайт не распространяет и не хранит электронные версии произведений, а занимается лишь лишь предоставлением доступа к создаваемому пользователями каталогу ссылок на торрент-файлы, которые содержат только списки хеш-сумм, убедительная просьба с жалобами обращаться напрямую к пользователю. Файлы для обмена на трекере предоставлены пользователями сайта, и администрация не несёт ответственности за их содержание. Просьба не заливать файлы, защищенные авторскими правами, а также файлы нелегального содержания!


    _________________
    [Профиль] [ЛС]
    Показать сообщения:    
    Ответить на тему

    Текущее время: Сегодня, в 21:27

    Часовой пояс: GMT + 2



    Вы не можете начинать темы
    Вы не можете отвечать на сообщения
    Вы не можете редактировать свои сообщения
    Вы не можете удалять свои сообщения
    Вы не можете голосовать в опросах
    Вы не можете прикреплять файлы к сообщениям
    Вы не можете скачивать файлы