BitTorrentTracker PerecTracker.org
BitTorrentTracker PerecTracker.org
    
Регистрация  ·  Вход
 
 · 
Забыли пароль?

  • (Flamenco) [CD] Juan Carmona - Alchemya - 2013, FLAC (tracks+.cue), lossless

    Ответить на тему
     
    Автор Сообщение

    Columb

    Создавать темы 19-Янв-2014 19:55

           

    [Цитировать]

    ♦ Juan Carmona - Alchemya ♦
    Жанр: Flamenco
    Носитель: CD
    Страна-производитель диска: Austria
    Год издания: 2013
    Издатель (лейбл): Nomades Kultur
    Номер по каталогу: WVF479081
    Аудиокодек: FLAC (*.flac)
    Тип рипа: tracks+.cue
    Битрейт аудио: lossless
    Продолжительность: 00:43:09
    Источник (релизер): dtromp
    Наличие сканов в содержимом раздачи: да
    Треклист:
    01. Africando [05:16]
    02. Mambo Influenciado [05:21]
    03. No Espero Nada [02:29]
    04. Karma [03:48]
    05. Altanaa [05:19]
    06. Creer En La Primavera [05:40]
    07. Santiago City [04:52]
    08. Sirena [05:00]
    09. Miami [04:01]
    10. Sombra En La Pared [01:20]

    Лог создания рипа

    Exact Audio Copy V1.0 beta 3 from 29. August 2011
    EAC extraction logfile from 18. January 2014, 12:11
    Juan Carmona / Alchemya
    Used drive : PLEXTOR DVDR PX-860A Adapter: 0 ID: 0
    Read mode : SecureUtilize accurate stream : YesDefeat audio cache : YesMake use of C2 pointers : No
    Read offset correction : 96Overread into Lead-In and Lead-Out : NoFill up missing offset samples with silence : YesDelete leading and trailing silent blocks : NoNull samples used in CRC calculations : YesUsed interface : Native Win32 interface for Win NT & 2000Gap handling : Appended to previous track
    Used output format : User Defined EncoderSelected bitrate : 1024 kBit/sQuality : HighAdd ID3 tag : NoCommand line compressor : C:\Program Files\Exact Audio Copy\Flac\flac.exeAdditional command line options : -8 -V -T "ARTIST=%artist%" -T "TITLE=%title%" -T "ALBUM=%albumtitle%" -T "DATE=%year%" -T "TRACKNUMBER=%tracknr%" -T "TOTALTRACKS=%numtracks%" -T "GENRE=%genre%" -T "ALBUMARTIST=%albumartist%" -T "ALBUM ARTIST=%albumartist%" -T "COMMENT=EAC Secure Mode, Test & Copy, AccurateRip, FLAC -8" %source%
    TOC of the extracted CD
    Track | Start | Length | Start sector | End sector --------------------------------------------------------- 1 | 0:00.00 | 5:16.07 | 0 | 23706 2 | 5:16.07 | 5:21.13 | 23707 | 47794 3 | 10:37.20 | 2:29.18 | 47795 | 58987 4 | 13:06.38 | 3:48.07 | 58988 | 76094 5 | 16:54.45 | 5:19.67 | 76095 | 100086 6 | 22:14.37 | 5:40.28 | 100087 | 125614 7 | 27:54.65 | 4:52.68 | 125615 | 147582 8 | 32:47.58 | 5:00.00 | 147583 | 170082 9 | 37:47.58 | 4:01.11 | 170083 | 188168 10 | 41:48.69 | 1:20.66 | 188169 | 194234
    Track 1
    Filename O:\DL\Juan Carmona - Alchemya (2013) [FLAC]\01 - Africando.wav
    Pre-gap length 0:00:02.00
    Peak level 100.0 % Extraction speed 4.4 X Track quality 100.0 % Test CRC 049A6A68 Copy CRC 049A6A68 Accurately ripped (confidence 2) [DA7707FF] (AR v2) Copy OK
    Track 2
    Filename O:\DL\Juan Carmona - Alchemya (2013) [FLAC]\02 - Mambo Influenciado.wav
    Pre-gap length 0:00:01.58
    Peak level 100.0 % Extraction speed 5.0 X Track quality 100.0 % Test CRC 43B530E4 Copy CRC 43B530E4 Accurately ripped (confidence 2) [5EEE02E1] (AR v2) Copy OK
    Track 3
    Filename O:\DL\Juan Carmona - Alchemya (2013) [FLAC]\03 - No Espero Nada.wav
    Pre-gap length 0:00:01.97
    Peak level 98.9 % Extraction speed 4.7 X Track quality 100.0 % Test CRC F7378CF0 Copy CRC F7378CF0 Accurately ripped (confidence 2) [3A731E48] (AR v2) Copy OK
    Track 4
    Filename O:\DL\Juan Carmona - Alchemya (2013) [FLAC]\04 - Karma.wav
    Pre-gap length 0:00:01.92
    Peak level 100.0 % Extraction speed 4.7 X Track quality 99.9 % Test CRC 4F86F171 Copy CRC 4F86F171 Accurately ripped (confidence 2) [36488CFC] (AR v2) Copy OK
    Track 5
    Filename O:\DL\Juan Carmona - Alchemya (2013) [FLAC]\05 - Altanaa.wav
    Pre-gap length 0:00:02.16
    Peak level 100.0 % Extraction speed 5.9 X Track quality 100.0 % Test CRC 20203187 Copy CRC 20203187 Accurately ripped (confidence 2) [FDF13B22] (AR v2) Copy OK
    Track 6
    Filename O:\DL\Juan Carmona - Alchemya (2013) [FLAC]\06 - Creer En La Primavera.wav
    Pre-gap length 0:00:01.76
    Peak level 100.0 % Extraction speed 6.4 X Track quality 100.0 % Test CRC 1A60996B Copy CRC 1A60996B Accurately ripped (confidence 2) [E7E568C3] (AR v2) Copy OK
    Track 7
    Filename O:\DL\Juan Carmona - Alchemya (2013) [FLAC]\07 - Santiago City.wav
    Pre-gap length 0:00:02.40
    Peak level 100.0 % Extraction speed 6.7 X Track quality 100.0 % Test CRC 94FFE485 Copy CRC 94FFE485 Accurately ripped (confidence 2) [93D24951] (AR v2) Copy OK
    Track 8
    Filename O:\DL\Juan Carmona - Alchemya (2013) [FLAC]\08 - Sirena.wav
    Pre-gap length 0:00:01.32
    Peak level 100.0 % Extraction speed 7.0 X Track quality 100.0 % Test CRC 378B4E35 Copy CRC 378B4E35 Accurately ripped (confidence 2) [C9EA58B1] (AR v2) Copy OK
    Track 9
    Filename O:\DL\Juan Carmona - Alchemya (2013) [FLAC]\09 - Miami.wav
    Pre-gap length 0:00:01.77
    Peak level 100.0 % Extraction speed 7.0 X Track quality 100.0 % Test CRC 5090430E Copy CRC 5090430E Accurately ripped (confidence 2) [DDE664B3] (AR v2) Copy OK
    Track 10
    Filename O:\DL\Juan Carmona - Alchemya (2013) [FLAC]\10 - Sombra En La Pared.wav
    Pre-gap length 0:00:03.32
    Peak level 99.0 % Extraction speed 5.6 X Track quality 100.0 % Test CRC CE744A33 Copy CRC CE744A33 Accurately ripped (confidence 2) [EFFE3251] (AR v2) Copy OK
    All tracks accurately ripped
    No errors occurred
    End of status report
    ---- CUETools DB Plugin V2.1.3
    [CTDB TOCID: EIKK8BrOsHF2x8b16kcQ2MzcAhA-] found, Submit result: EIKK8BrOsHF2x8b16kcQ2MzcAhA- has been confirmed[2f1853eb] (2/2) Accurately ripped
    ==== Log checksum 3C6EF7A71700191F14769A6CD9C400929BBBBE7BE2CDAF18A9970B2D020F7244 ====

    Содержание индексной карты (.CUE)

    REM GENRE "World Music"REM DATE 2013REM DISCID 940A1D0AREM COMMENT "ExactAudioCopy v1.0b3"PERFORMER "Juan Carmona"TITLE "Alchemya"FILE "01 - Africando.wav" WAVE TRACK 01 AUDIO TITLE "Africando" PERFORMER "Juan Carmona" FLAGS DCP INDEX 01 00:00:00 TRACK 02 AUDIO TITLE "Mambo Influenciado" PERFORMER "Juan Carmona" FLAGS DCP INDEX 00 05:14:38FILE "02 - Mambo Influenciado.wav" WAVE INDEX 01 00:00:00 TRACK 03 AUDIO TITLE "No Espero Nada" PERFORMER "Juan Carmona" FLAGS DCP INDEX 00 05:19:15FILE "03 - No Espero Nada.wav" WAVE INDEX 01 00:00:00 TRACK 04 AUDIO TITLE "Karma" PERFORMER "Juan Carmona" FLAGS DCP INDEX 00 02:27:24FILE "04 - Karma.wav" WAVE INDEX 01 00:00:00 TRACK 05 AUDIO TITLE "Altanaa" PERFORMER "Juan Carmona" FLAGS DCP INDEX 00 03:45:70FILE "05 - Altanaa.wav" WAVE INDEX 01 00:00:00 TRACK 06 AUDIO TITLE "Creer En La Primavera" PERFORMER "Juan Carmona" FLAGS DCP INDEX 00 05:18:10FILE "06 - Creer En La Primavera.wav" WAVE INDEX 01 00:00:00 TRACK 07 AUDIO TITLE "Santiago City" PERFORMER "Juan Carmona" FLAGS DCP INDEX 00 05:37:73FILE "07 - Santiago City.wav" WAVE INDEX 01 00:00:00 TRACK 08 AUDIO TITLE "Sirena" PERFORMER "Juan Carmona" FLAGS DCP INDEX 00 04:51:44FILE "08 - Sirena.wav" WAVE INDEX 01 00:00:00 TRACK 09 AUDIO TITLE "Miami" PERFORMER "Juan Carmona" FLAGS DCP INDEX 00 04:58:17FILE "09 - Miami.wav" WAVE INDEX 01 00:00:00 TRACK 10 AUDIO TITLE "Sombra En La Pared" PERFORMER "Juan Carmona" FLAGS DCP INDEX 00 03:57:62FILE "10 - Sombra En La Pared.wav" WAVE INDEX 01 00:00:00

    Состав

    Juan Carmona - spanish guitar, sitar (5), electric guitar (7)
    Josemi Carmona - spanish guitar (4)
    Paquete - spanish guitar (7)
    Sylvian Luc - electric guitar (2, 6)
    Larry Coryell - electric guitar (8)
    Carmelo de Cuba - piano (2, 6), voice (2)
    Richard Larroze - piano (8, 9)
    Rafael de Utrera - spanish chant (1)
    El Negri - chant (3)
    Antonio el Ingueta - chant (5)
    David de Jacoba - chante (5)
    Saul Quiros - chant (5)
    Ramon de Portugues - chant (6)
    Makarines - chant (10)
    JC Wecker - voice (1), chorus (1, 3)
    Loli Abadia - chorus (5)
    Francoise Atlan - voice (8)
    Tino De Geraldo - percussion (1, 5, 8, 9), drums (8, 9)
    Bandolero - percussion (1, 7), wood blocks (5)
    Ramon Porrina - percussion (1, 5), drums (5)
    Carlito Brigante - percussion (2)
    Juanito Carmona - percussion, palmas (4)
    Mino Cinelu - percussion (6)
    Pira�a - drums (9)
    Domingo Patricio - flute (1), EWI (1), electronics (1, 3, 5, 7, 8)
    Julian Heredia - bass (1)
    Alain P�rez - bass (2)
    Antonio Ramos “Maca” - bass (5, 9)
    Yelsi Heredia - acoustic bass (6)
    Pablo Martin - bass (8)
    Dominique de Piazza - bass (9)
    Frank Galin - piano (9)
    Juan Grande - palmas (1, 7)
    Luis Carrasco - palmas (1, 7)
    Ana Carrasco - palmas (1, 7)
    Los de Jerez - jaleo (1, 5), palmas (5)
    Antonio Rey - jaleo (7)
    Pierre Bertrand - brass (9)
    Nicolas Folmer - brass (9)
    Denis Leloup - brass (9)
    Скачать .torrent

    Скачать торрент-файл бесплатно и на максимальной скорости!

    Как скачивать? · Что такое торрент? · Рейтинг и ограничения

    !ВНИМАНИЕ!
    Сайт не распространяет и не хранит электронные версии произведений, а занимается лишь лишь предоставлением доступа к создаваемому пользователями каталогу ссылок на торрент-файлы, которые содержат только списки хеш-сумм, убедительная просьба с жалобами обращаться напрямую к пользователю. Файлы для обмена на трекере предоставлены пользователями сайта, и администрация не несёт ответственности за их содержание. Просьба не заливать файлы, защищенные авторскими правами, а также файлы нелегального содержания!

    [Профиль] [ЛС]
    Показать сообщения:    
    Ответить на тему

    Текущее время: Сегодня, в 06:07

    Часовой пояс: GMT + 2



    Вы не можете начинать темы
    Вы не можете отвечать на сообщения
    Вы не можете редактировать свои сообщения
    Вы не можете удалять свои сообщения
    Вы не можете голосовать в опросах
    Вы не можете прикреплять файлы к сообщениям
    Вы не можете скачивать файлы