BitTorrentTracker PerecTracker.org
BitTorrentTracker PerecTracker.org
    
Регистрация  ·  Вход
 
 · 
Забыли пароль?

  • Европа / Europa Report (Себастьян Кордеро / Sebastián Cordero) [2013, США, фантастика, триллер, BDRip 720p] Dub + Sub Rus, Eng + Original Eng

    Ответить на тему
     
    Автор Сообщение

    Light

    Создавать темы 03-Апр-2016 20:41

           

    [Цитировать]

    Европа / Europa Report
    «Fear. Sacrifice. Contact»
    Страна: США
    Жанр: фантастика, триллер
    Год выпуска: 2013
    Продолжительность: 01:30:25
    Перевод: Профессиональный (дублированный) iTunes
    Cубтитры: русские,английские
    Оригинальная аудиодорожка: английский
    Режиссер: Себастьян Кордеро / Sebastián Cordero
    В ролях: Шарлто Копли, Микаэл Нюквист, Эмбет Дэвидц, Кристиан Камарго, Каролина Выдра, Дэниэл Ву, Исайя Уитлок мл., Анамария Маринка
    Описание: Фильм повествует о международной космической экспедиции к шестому спутнику Юпитера, которую снаряжает некая частная корпорация. Цель полёта — высадиться на поверхность Европы, в подлёдном океане которой учёные теоретически предполагают наличие жизни.
    Качество видео: BDRip 720p
    Формат: MKV
    Видео: AVC/H.264, 1280x720, 6375 Kbps, 23.976fps
    Аудио 1: AC3, 384 Kbps, 48 kHz, 6 channels - Дубляж
    Аудио 2: DTS, 1536 Kbps, 48 kHz, 6 channels - Оригинал
    Субтитры: Russian (Forced, iTunes), Russian (iTunes), English (Forced, iTunes), English (SDH)
    Доп. информация:

    Сэмпл
    Саундтрек

    Скриншоты

    MediaInfo

    Общее
    Уникальный идентификатор : 176912395988011739833244146480996115887 (0x8518168D80B358BC96950309B03365AF)
    Полное имя : D:\Европа (Europa Report) 2013 Dub Original BDRip 720p.mkv
    Формат : Matroska
    Версия формата : Version 2
    Размер файла : 5,46 Гбайт
    Продолжительность : 1 ч. 30 м.
    Общий поток : 8653 Кбит/сек
    Название фильма : Europa Report (2013) - Release for HDCLUB
    Дата кодирования : UTC 2014-03-18 00:08:45
    Программа кодирования : mkvmerge v3.4.0 ('Rapunzel') built on May 15 2010 09:38:20
    Библиотека кодирования : libebml v0.8.0 + libmatroska v0.9.0
    Видео
    Идентификатор : 1
    Формат : AVC
    Формат/Информация : Advanced Video Codec
    Профиль формата : High@L4.1
    Параметр CABAC формата : Да
    Параметр ReFrames формата : 9 кадров
    Идентификатор кодека : V_MPEG4/ISO/AVC
    Продолжительность : 1 ч. 30 м.
    Битрейт : 6587 Кбит/сек
    Ширина : 1280 пикселей
    Высота : 720 пикселей
    Соотношение сторон : 16:9
    Режим частоты кадров : Постоянный
    Частота кадров : 23,976 (24000/1001) кадра/сек
    Цветовое пространство : YUV
    Субдискретизация насыщенности : 4:2:0
    Битовая глубина : 8 бит
    Тип развёртки : Прогрессивная
    Бит/(Пиксели*Кадры) : 0.298
    Размер потока : 4,16 Гбайт (76%)
    Заголовок : Europa Report (2013) - Release for HDCLUB
    Библиотека кодирования : x264 core 138 r2358 9e941d1
    Настройки программы : cabac=1 / ref=9 / deblock=1:-3:-3 / analyse=0x3:0x133 / me=umh / subme=10 / psy=1 / psy_rd=1.05:0.00 / mixed_ref=1 / me_range=48 / chroma_me=1 / trellis=2 / 8x8dct=1 / cqm=0 / deadzone=21,11 / fast_pskip=0 / chroma_qp_offset=-2 / threads=6 / lookahead_threads=1 / sliced_threads=0 / nr=0 / decimate=1 / interlaced=0 / bluray_compat=0 / constrained_intra=0 / bframes=9 / b_pyramid=2 / b_adapt=2 / b_bias=0 / direct=3 / weightb=1 / open_gop=0 / weightp=2 / keyint=250 / keyint_min=23 / scenecut=40 / intra_refresh=0 / rc_lookahead=60 / rc=crf / mbtree=0 / crf=17.8 / qcomp=0.75 / qpmin=0 / qpmax=69 / qpstep=4 / vbv_maxrate=50000 / vbv_bufsize=62500 / crf_max=0.0 / nal_hrd=none / ip_ratio=1.30 / pb_ratio=1.20 / aq=1:0.75
    Язык : English
    Default : Да
    Forced : Нет
    Аудио #1
    Идентификатор : 2
    Формат : AC-3
    Формат/Информация : Audio Coding 3
    Расширение режима : CM (complete main)
    Параметр Endianness формата : Big
    Идентификатор кодека : A_AC3
    Продолжительность : 1 ч. 30 м.
    Вид битрейта : Постоянный
    Битрейт : 384 Кбит/сек
    Каналы : 6 каналов
    Расположение каналов : Front: L C R, Side: L R, LFE
    Частота : 48,0 КГц
    Частота кадров : 31,250 кадров/сек (1536 spf)
    Метод сжатия : С потерями
    Размер потока : 248 Мбайт (4%)
    Заголовок : AC3 5.1 @ 384 kbps - DUB, iTunes
    Язык : Russian
    Default : Да
    Forced : Нет
    Аудио #2
    Идентификатор : 3
    Формат : DTS
    Формат/Информация : Digital Theater Systems
    Режим : 16
    Параметр Endianness формата : Big
    Идентификатор кодека : A_DTS
    Продолжительность : 1 ч. 30 м.
    Вид битрейта : Постоянный
    Битрейт : 1509 Кбит/сек
    Каналы : 6 каналов
    Расположение каналов : Front: L C R, Side: L R, LFE
    Частота : 48,0 КГц
    Частота кадров : 93,750 кадра/сек (512 spf)
    Битовая глубина : 24 бит
    Метод сжатия : С потерями
    Задержка видео : 11 мс.
    Размер потока : 976 Мбайт (17%)
    Заголовок : DTS 5.1 @ 1536 kbps
    Язык : English
    Default : Нет
    Forced : Нет
    Текст #1
    Идентификатор : 4
    Формат : UTF-8
    Идентификатор кодека : S_TEXT/UTF8
    Идентификатор кодека/Информация : UTF-8 Plain Text
    Заголовок : Forced
    Язык : Russian
    Default : Да
    Forced : Нет
    Текст #2
    Идентификатор : 5
    Формат : UTF-8
    Идентификатор кодека : S_TEXT/UTF8
    Идентификатор кодека/Информация : UTF-8 Plain Text
    Язык : Russian
    Default : Нет
    Forced : Нет
    Текст #3
    Идентификатор : 6
    Формат : UTF-8
    Идентификатор кодека : S_TEXT/UTF8
    Идентификатор кодека/Информация : UTF-8 Plain Text
    Заголовок : Forced
    Язык : English
    Default : Нет
    Forced : Нет
    Текст #4
    Идентификатор : 7
    Формат : UTF-8
    Идентификатор кодека : S_TEXT/UTF8
    Идентификатор кодека/Информация : UTF-8 Plain Text
    Язык : English
    Default : Нет
    Forced : Нет
    Меню
    00:00:00.000 : :00:00:00.000
    00:07:24.944 : :00:07:24.944
    00:15:46.988 : :00:15:46.988
    00:22:05.491 : :00:22:05.491
    00:28:40.218 : :00:28:40.218
    00:34:55.719 : :00:34:55.719
    00:40:22.253 : :00:40:22.253
    00:51:24.081 : :00:51:24.081
    00:59:42.996 : :00:59:42.996
    01:09:13.649 : :01:09:13.649
    01:18:32.333 : :01:18:32.333
    01:24:27.145 : :01:24:27.145
    Скачать .torrent

    Скачать торрент-файл бесплатно и на максимальной скорости!

    Как скачивать? · Что такое торрент? · Рейтинг и ограничения

    !ВНИМАНИЕ!
    Сайт не распространяет и не хранит электронные версии произведений, а занимается лишь лишь предоставлением доступа к создаваемому пользователями каталогу ссылок на торрент-файлы, которые содержат только списки хеш-сумм, убедительная просьба с жалобами обращаться напрямую к пользователю. Файлы для обмена на трекере предоставлены пользователями сайта, и администрация не несёт ответственности за их содержание. Просьба не заливать файлы, защищенные авторскими правами, а также файлы нелегального содержания!


    _________________
    [Профиль] [ЛС]
    Показать сообщения:    
    Ответить на тему

    Текущее время: Сегодня, в 12:17

    Часовой пояс: GMT + 2



    Вы не можете начинать темы
    Вы не можете отвечать на сообщения
    Вы не можете редактировать свои сообщения
    Вы не можете удалять свои сообщения
    Вы не можете голосовать в опросах
    Вы не можете прикреплять файлы к сообщениям
    Вы не можете скачивать файлы