BitTorrentTracker PerecTracker.org
BitTorrentTracker PerecTracker.org
    
Регистрация  ·  Вход
 
 · 
Забыли пароль?

  • Birth Control - Here And Now - 2016, FLAC (image+.cue), lossless

    Ответить на тему
     
    Автор Сообщение

    rechyn

    Создавать темы 03-Апр-2016 17:26

           

    [Цитировать]

    Birth Control - Here And Now
    Жанр: Krautrock, Hard Rock, Progressive Rock
    Носитель: CD
    Год издания: 2016
    Издатель (лейбл): H'Art
    Номер по каталогу: 4024597160011
    Страна исполнителя (группы): Germany
    Аудиокодек: FLAC (*.flac)
    Тип рипа: image+.cue
    Битрейт аудио: lossless
    Продолжительность: 68:57
    Источник (релизер): HaRD
    Наличие сканов в содержимом раздачи: да
    Треклист:
    1. Lost In The Sea (8:17)
    2. 12 Steps (6:34)
    3. Me And My Car (4:28)
    4. Run Away With Me (5:45)
    5. The Witch (5:23)
    6. Wasting My Time (5:58)
    7. Right Place, Wrong Time (6:11)
    8. I Would Not Want To Be You (6:30)
    9. Rat In My Flat (6:49)
    10. Truth Is Mine (6:05)
    11. Live In The Here And Now (6:05)

    Лог создания рипа

    Exact Audio Copy V1.1 from 23. June 2015
    EAC extraction logfile from 2. April 2016, 6:18
    Birth Control / Here And Now
    Used drive : PIONEER BD-RW BDR-209D Adapter: 0 ID: 5
    Read mode : Secure
    Utilize accurate stream : Yes
    Defeat audio cache : Yes
    Make use of C2 pointers : No
    Read offset correction : 667
    Overread into Lead-In and Lead-Out : No
    Fill up missing offset samples with silence : Yes
    Delete leading and trailing silent blocks : No
    Null samples used in CRC calculations : Yes
    Used interface : Installed external ASPI interface
    Used output format : User Defined Encoder
    Selected bitrate : 768 kBit/s
    Quality : High
    Add ID3 tag : No
    Command line compressor : C:\Program Files (x86)\Exact Audio Copy\FLAC\FLAC.EXE
    Additional command line options : -6 -V -T "ARTIST=%artist%" -T "TITLE=%title%" -T "ALBUM=%albumtitle%" -T "DATE=%year%" -T "TRACKNUMBER=%tracknr%" -T "GENRE=%genre%" -T "COMMENT=%comment%" -T "BAND=%albuminterpret%" -T "ALBUMARTIST=%albuminterpret%" -T "COMPOSER=%composer%" %haslyrics%--tag-from-file=LYRICS="%lyricsfile%"%haslyrics% -T "DISCNUMBER=%cdnumber%" -T "TOTALDISCS=%totalcds%" -T "TOTALTRACKS=%numtracks%" %hascover%--picture="%coverfile%"%hascover% %source% -o %dest%
    TOC of the extracted CD
    Track | Start | Length | Start sector | End sector
    ---------------------------------------------------------
    1 | 0:00.00 | 8:17.14 | 0 | 37288
    2 | 8:17.14 | 6:33.48 | 37289 | 66811
    3 | 14:50.62 | 4:28.20 | 66812 | 86931
    4 | 19:19.07 | 5:47.09 | 86932 | 112965
    5 | 25:06.16 | 5:25.20 | 112966 | 137360
    6 | 30:31.36 | 5:57.40 | 137361 | 164175
    7 | 36:29.01 | 6:11.02 | 164176 | 192002
    8 | 42:40.03 | 6:29.69 | 192003 | 221246
    9 | 49:09.72 | 6:48.49 | 221247 | 251895
    10 | 55:58.46 | 6:07.33 | 251896 | 279453
    11 | 62:06.04 | 6:51.49 | 279454 | 310327
    Range status and errors
    Selected range
    Filename E:\MUSIC\Birth Control - Here And Now.wav
    Peak level 93.3 %
    Extraction speed 3.1 X
    Range quality 99.9 %
    Test CRC DD071EE8
    Copy CRC DD071EE8
    Copy OK
    No errors occurred
    AccurateRip summary
    Track 1 not present in database
    Track 2 not present in database
    Track 3 not present in database
    Track 4 not present in database
    Track 5 not present in database
    Track 6 not present in database
    Track 7 not present in database
    Track 8 not present in database
    Track 9 not present in database
    Track 10 not present in database
    Track 11 not present in database
    None of the tracks are present in the AccurateRip database
    End of status report
    ==== Log checksum 162D9AD32ADB84F60924BB2318EF423F95C50155617E1E1E824433BFC6E01963 ====

    Лог проверки качества

    AUDIOCHECKER v2.0 beta (build 457) - by Dester - opdester@freemail.hu
    ~~~~~~~~~~~~~~~~~~~~~~~~~~~~~~~~~~
    -=== НЕ РЕДАКТИРУЙТЕ ЭТОТ ФАЙЛ! ===-
    Путь: ...\Birth Control - Here And Now (2016)
    1 -=- Birth Control - Here And Now.flac -=- CDDA (100%)
    6239924

    Состав

    - Peter Föller / lead vocals
    - Manfred "Manni" von Bohr / drums
    - Hannes Vesper / bass, vocals
    - Sascha Kühn / organ, keyboards, piano
    - Martin "Ludi" Uttrich / guitars, vocals, talk box
    Guests:
    - Bernd Noske / vocals, drums
    - Shondell Mims / background vocals
    - Yvonne Allsopp / background vocals
    - Albie Donnelly / saxophone (3)
    - Andy Zingsem / Rap (9)
    Скачать .torrent

    Скачать торрент-файл бесплатно и на максимальной скорости!

    Как скачивать? · Что такое торрент? · Рейтинг и ограничения

    !ВНИМАНИЕ!
    Сайт не распространяет и не хранит электронные версии произведений, а занимается лишь лишь предоставлением доступа к создаваемому пользователями каталогу ссылок на торрент-файлы, которые содержат только списки хеш-сумм, убедительная просьба с жалобами обращаться напрямую к пользователю. Файлы для обмена на трекере предоставлены пользователями сайта, и администрация не несёт ответственности за их содержание. Просьба не заливать файлы, защищенные авторскими правами, а также файлы нелегального содержания!


    _________________
    [Профиль] [ЛС]
    Показать сообщения:    
    Ответить на тему

    Текущее время: Сегодня, в 09:55

    Часовой пояс: GMT + 2



    Вы не можете начинать темы
    Вы не можете отвечать на сообщения
    Вы не можете редактировать свои сообщения
    Вы не можете удалять свои сообщения
    Вы не можете голосовать в опросах
    Вы не можете прикреплять файлы к сообщениям
    Вы не можете скачивать файлы