BitTorrentTracker PerecTracker.org
BitTorrentTracker PerecTracker.org
    
Регистрация  ·  Вход
 
 · 
Забыли пароль?

  • Украденное счастье / Серии: 1-4 из 4 (Максим Бриус) [2016, Россия, Мелодрама, HDTVRip]

    Ответить на тему
     
    Автор Сообщение

    rechyn

    Создавать темы 03-Апр-2016 17:01

           

    [Цитировать]

    Украденное счастьеПроизводитель : Россия, ООО "Алдан-Фильм"
    Жанр: Мелодрама
    Год выпуска: 2016
    Продолжительность: 50 мин.
    Cубтитры: нет
    Режиссер: Максим Бриус
    В ролях: Марина Денисова, Илья Оболонков, Юлия Кудояр, Виктор Рыбчинский, Ирина Шевчук, Игорь Степанов, Полина Стефанович, Лариса Маршалова, Елена Иванникова, Юлианна Михневич
    Описание: У Веры идеальный брак. Она заботливая домохозяйка и отлично справляется со своей главной задачей – угождать и создавать жизненный комфорт своему мужу Борису, музыканту и преподавателю консерватории. Так бы и жила Вера немного скучной и стабильной жизнью, если бы не младшая сестра Ника, неожиданно и бесцеремонно вторгшаяся в семейную идиллию. Вера не рада неожиданному визиту и не без причины. Они с сестрой стали чужими друг другу после того, как Ника «украла» Верино счастье, отбила у сестры жениха, ее первую «школьную любовь». Теперь Ника рассталась с мужем и снова в «активном поиске». И, как несколько лет назад, выбор Ники вновь падает на избранника Веры. Кажется, эта история повторяется вновь. Но на этот раз Вера не сдается. Она попытается вернуть свое «украденное счастье»…
    Доп. информация: Релиз группа
    Все раздачи сериала
    Сэмпл
    Качество: HDTVRip
    Формат: AVI
    Видео кодек: XviD
    Аудио кодек: AC3
    Видео: 720x400 (1.80:1), 25 fps, XviD build 73 ~1854 kbps avg, 0.22 bit/pixel
    Аудио: 48 kHz, AC3 Dolby Digital, 2/0 (L,R) ch, ~192.00 kbps avg

    MI

    General
    Complete name : X:\раздачи\Ukradennoe schate.2015.HDTVRip.RG.Russkie.serialy.&.Files-x.Ukradennoe schate.2015.HDTVRip.RG.Russkie.serialy.&.Files-x.avi
    Format : AVI
    Format/Info : Audio Video Interleave
    File size : 1.37 GiB
    Duration : 1h 34mn
    Overall bit rate : 2 084 Kbps
    Writing application : VirtualDubMod 1.5.10.3 | www.virtualdub-fr.org || (build 2550/release)
    Writing library : VirtualDubMod build 2550/release
    Video
    ID : 0
    Format : MPEG-4 Visual
    Format profile : Advanced Simple@L5
    Format settings, BVOP : 1
    Format settings, QPel : No
    Format settings, GMC : No warppoints
    Format settings, Matrix : Custom
    Codec ID : XVID
    Codec ID/Hint : XviD
    Duration : 1h 34mn
    Bit rate : 1 883 Kbps
    Width : 720 pixels
    Height : 400 pixels
    Display aspect ratio : 16:9
    Frame rate : 25.000 fps
    Color space : YUV
    Chroma subsampling : 4:2:0
    Bit depth : 8 bits
    Scan type : Progressive
    Compression mode : Lossy
    Bits/(Pixel*Frame) : 0.261
    Stream size : 1.24 GiB (90%)
    Writing library : XviD 73
    Audio
    ID : 1
    Format : AC-3
    Format/Info : Audio Coding 3
    Mode extension : CM (complete main)
    Format settings, Endianness : Big
    Codec ID : 2000
    Duration : 1h 34mn
    Bit rate mode : Constant
    Bit rate : 192 Kbps
    Channel(s) : 2 channels
    Channel positions : Front: L R
    Sampling rate : 48.0 KHz
    Frame rate : 31.250 fps (1536 spf)
    Compression mode : Lossy
    Stream size : 129 MiB (9%)
    Alignment : Split accross interleaves
    Interleave, duration : 40 ms (1.00 video frame)
    Interleave, preload duration : 500 ms

    Скриншоты

    Скачать .torrent

    Скачать торрент-файл бесплатно и на максимальной скорости!

    Как скачивать? · Что такое торрент? · Рейтинг и ограничения

    !ВНИМАНИЕ!
    Сайт не распространяет и не хранит электронные версии произведений, а занимается лишь лишь предоставлением доступа к создаваемому пользователями каталогу ссылок на торрент-файлы, которые содержат только списки хеш-сумм, убедительная просьба с жалобами обращаться напрямую к пользователю. Файлы для обмена на трекере предоставлены пользователями сайта, и администрация не несёт ответственности за их содержание. Просьба не заливать файлы, защищенные авторскими правами, а также файлы нелегального содержания!


    _________________
    [Профиль] [ЛС]
    Показать сообщения:    
    Ответить на тему

    Текущее время: Сегодня, в 21:14

    Часовой пояс: GMT + 2



    Вы не можете начинать темы
    Вы не можете отвечать на сообщения
    Вы не можете редактировать свои сообщения
    Вы не можете удалять свои сообщения
    Вы не можете голосовать в опросах
    Вы не можете прикреплять файлы к сообщениям
    Вы не можете скачивать файлы