BitTorrentTracker PerecTracker.org
BitTorrentTracker PerecTracker.org
    
Регистрация  ·  Вход
 
 · 
Забыли пароль?

  • Местный / The Homesman (Томми Ли Джонс / Tommy Lee Jones) [2014, США, Франция, драма, вестерн, BDRip 1080p] DVO (Сладкая парочка) + Original (Eng) + Sub (Eng)

    Ответить на тему
     
    Автор Сообщение

    Light

    Создавать темы 03-Апр-2016 16:36

           

    [Цитировать]

    Местный / The HomesmanСтрана: США, Франция
    Жанр: драма, вестерн
    Год выпуска: 2014
    Продолжительность: 02:03:18
    Перевод: Любительский (двухголосый закадровый) Сладкая парочка
    Cубтитры: английские (форсированные, полные)
    Оригинальная аудиодорожка: английский
    Режиссер: Томми Ли Джонс / Tommy Lee Jones
    В ролях: Томми Ли Джонс, Хилари Суэнк, Грэйс Гаммер, Миранда Отто, Соня Рихтер, Джо Харви Аллен, Бэрри Корбин, Давид Денсик, Уильям Фихтнер, Ивэн Джонс
    Описание:
    События фильма разворачиваются во времена освоения американского Запада. Главной героине надо перевезти трех умственно неполноценных женщин из Небраски в Айову. Сопроводить опасную, требующую от всех большого мужества экспедицию нанят человек вне закона…
    - || -Тип релиза: BDRip 1080p (рип от SA89)

    Контейнер: MKV
    Видео: AVC (x264), 1920x800 (2,40:1) at 23,976 fps, 15300 Кbps, 0.415 bpp
    Аудио 1: AC3; 128 Kbps; CBR; 1 ch; 48 khz | DVO - Сладкая парочка |
    Аудио 2: DTS; 1536 Kbps; CBR; 6 ch; 48 khz | Английский |
    Формат субтитров: softsub (SRT)
    Скриншоты || x264 Info || MediaInfo || Notes

    MediaInfo

    General
    Unique ID                                : 223565747589288622440879187089482287696 (0xA831326050AF553A9A9F098C34538A50)
    Complete name                            : Местный.2014.DVO.1080p.Hybrid.BluRay.x264-SA89.mkv
    Format                                   : Matroska
    Format version                           : Version 4 / Version 2
    File size                                : 14.9 GiB
    Duration                                 : 2h 3mn
    Overall bit rate                         : 17.3 Mbps
    Movie name                               : The Homesman [2014] [1080p] DVO
    Encoded date                             : UTC 2016-04-01 05:03:32
    Writing application                      : mkvmerge v7.8.0 ('River Man') 32bit built on Mar 27 2015 16:18:02
    Writing library                          : libebml v1.3.1 + libmatroska v1.4.2
    Video
    ID                                       : 1
    Format                                   : AVC
    Format/Info                              : Advanced Video Codec
    Format profile                           : High@L4.1
    Format settings, CABAC                   : Yes
    Format settings, ReFrames                : 5 frames
    Codec ID                                 : V_MPEG4/ISO/AVC
    Duration                                 : 2h 3mn
    Bit rate                                 : 15.3 Mbps
    Width                                    : 1 920 pixels
    Height                                   : 800 pixels
    Display aspect ratio                     : 2.40:1
    Frame rate mode                          : Constant
    Frame rate                               : 23.976 fps
    Color space                              : YUV
    Chroma subsampling                       : 4:2:0
    Bit depth                                : 8 bits
    Scan type                                : Progressive
    Bits/(Pixel*Frame)                       : 0.415
    Stream size                              : 13.2 GiB (89%)
    Title                                    : profile.php?mode=viewprofile&u=22488948
    Writing library                          : x264 core 148 r2665 a01e339
    Encoding settings                        : cabac=1 / ref=5 / deblock=1:-3:-3 / analyse=0x3:0x133 / me=umh / subme=10 / psy=1 / psy_rd=1.00:0.00 / mixed_ref=1 / me_range=24 / chroma_me=1 / trellis=2 / 8x8dct=1 / cqm=0 / deadzone=21,11 / fast_pskip=1 / chroma_qp_offset=-2 / threads=6 / lookahead_threads=1 / sliced_threads=0 / nr=0 / decimate=1 / interlaced=0 / bluray_compat=0 / constrained_intra=0 / bframes=8 / b_pyramid=2 / b_adapt=2 / b_bias=0 / direct=3 / weightb=1 / open_gop=0 / weightp=2 / keyint=250 / keyint_min=25 / scenecut=40 / intra_refresh=0 / rc_lookahead=60 / rc=crf / mbtree=0 / crf=16.5 / qcomp=0.60 / qpmin=0 / qpmax=69 / qpstep=4 / vbv_maxrate=62500 / vbv_bufsize=78125 / crf_max=0.0 / nal_hrd=none / filler=0 / ip_ratio=1.40 / pb_ratio=1.30 / aq=1:0.80 / zones=8482,14565,crf=14.5/84008,84354,crf=14.5/104601,105228,crf=14.5/107431,107822,crf=14.5/112194,112232,crf=14.5/112541,116387,crf=14.5/117046,117107,crf=14.5
    Language                                 : English
    Default                                  : Yes
    Forced                                   : No
    Audio #1
    ID                                       : 2
    Format                                   : AC-3
    Format/Info                              : Audio Coding 3
    Mode extension                           : CM (complete main)
    Format settings, Endianness              : Big
    Codec ID                                 : A_AC3
    Duration                                 : 2h 3mn
    Bit rate mode                            : Constant
    Bit rate                                 : 128 Kbps
    Channel(s)                               : 1 channel
    Channel positions                        : Front: C
    Sampling rate                            : 48.0 KHz
    Bit depth                                : 16 bits
    Compression mode                         : Lossy
    Stream size                              : 113 MiB (1%)
    Title                                    : DVO [Сладкая парочка]
    Language                                 : Russian
    Default                                  : Yes
    Forced                                   : No
    Audio #2
    ID                                       : 3
    Format                                   : DTS
    Format/Info                              : Digital Theater Systems
    Mode                                     : 16
    Format settings, Endianness              : Big
    Codec ID                                 : A_DTS
    Duration                                 : 2h 3mn
    Bit rate mode                            : Constant
    Bit rate                                 : 1 509 Kbps
    Channel(s)                               : 6 channels
    Channel positions                        : Front: L C R, Side: L R, LFE
    Sampling rate                            : 48.0 KHz
    Bit depth                                : 24 bits
    Compression mode                         : Lossy
    Stream size                              : 1.30 GiB (9%)
    Language                                 : English
    Default                                  : No
    Forced                                   : No
    Text #1
    ID                                       : 4
    Format                                   : UTF-8
    Codec ID                                 : S_TEXT/UTF8
    Codec ID/Info                            : UTF-8 Plain Text
    Language                                 : English
    Default                                  : No
    Forced                                   : No
    Text #2
    ID                                       : 5
    Format                                   : UTF-8
    Codec ID                                 : S_TEXT/UTF8
    Codec ID/Info                            : UTF-8 Plain Text
    Title                                    : forced
    Language                                 : English
    Default                                  : No
    Forced                                   : No
    Menu
    00:00:00.000                             : en:Chapter 01
    00:10:07.524                             : en:Chapter 02
    00:15:21.546                             : en:Chapter 03
    00:23:10.014                             : en:Chapter 04
    00:31:30.347                             : en:Chapter 05
    00:36:47.455                             : en:Chapter 06
    00:44:24.829                             : en:Chapter 07
    00:53:49.226                             : en:Chapter 08
    01:01:12.835                             : en:Chapter 09
    01:05:19.999                             : en:Chapter 10
    01:16:27.833                             : en:Chapter 11
    01:23:24.124                             : en:Chapter 12
    01:30:25.795                             : en:Chapter 13
    01:36:07.345                             : en:Chapter 14
    01:48:11.359                             : en:Chapter 15
    01:56:36.072                             : en:Chapter 16
    про русский 5.1
    1) разный спектр у левого и центрального канала - говорит о том что центр не родной...
    центр

    левый

    2) в русском центре есть звуки которые должны быть только во фронтах (на картинке: центр и левый канал из русской дорожки, далее центр и левый канал из английской дорожки)


    3) сравнение спектра на сомнительном участке из пункта 2
    русский центр

    английский центр

    английский левый

    микс каналов из оригинальной английской дорожки: центр + левый канал
    --итого, взяли какой то канал из русской-стерео дорожки и воткнули в английский 5.1 с битрейтом 448.Цитата: Про Аудио дорожку №1:
    5.1 что гуляет по сети - слепленный подменой центрального канала, картинки выше
    -
    Цитата:
    Цитата:

    USA source is used for the video, audio, subtitles and chapters.
    GER source is used to replace the hardcoded subtitles.
    - Fixed the USA source colors to match GER source.
    - Debanded some scenes.
    - Replaced hardcoded subtitles.
    Скачать .torrent

    Скачать торрент-файл бесплатно и на максимальной скорости!

    Как скачивать? · Что такое торрент? · Рейтинг и ограничения

    !ВНИМАНИЕ!
    Сайт не распространяет и не хранит электронные версии произведений, а занимается лишь лишь предоставлением доступа к создаваемому пользователями каталогу ссылок на торрент-файлы, которые содержат только списки хеш-сумм, убедительная просьба с жалобами обращаться напрямую к пользователю. Файлы для обмена на трекере предоставлены пользователями сайта, и администрация не несёт ответственности за их содержание. Просьба не заливать файлы, защищенные авторскими правами, а также файлы нелегального содержания!


    _________________
    [Профиль] [ЛС]
    Показать сообщения:    
    Ответить на тему

    Текущее время: Сегодня, в 14:48

    Часовой пояс: GMT + 2



    Вы не можете начинать темы
    Вы не можете отвечать на сообщения
    Вы не можете редактировать свои сообщения
    Вы не можете удалять свои сообщения
    Вы не можете голосовать в опросах
    Вы не можете прикреплять файлы к сообщениям
    Вы не можете скачивать файлы