BitTorrentTracker PerecTracker.org
BitTorrentTracker PerecTracker.org
    
Регистрация  ·  Вход
 
 · 
Забыли пароль?

  • [ATV3] Пятьдесят оттенков черного / Fifty Shades of Black (Майкл Тиддес / Michael Tiddes ) [2016, США, Комедия, WEB-DL, HD (1080p)] DUB

    Ответить на тему
     
    Автор Сообщение

    rechyn

    Создавать темы 03-Апр-2016 16:36

           

    [Цитировать]

    Пятьдесят оттенков черного / Fifty Shades of Black
    «Если ты вляпался в черное, никогда не отмоешься до серого»
    4.044 / 10 3.30 / 10
    -Год выпуска: 2016
    Страна: США
    Жанр: Комедия
    Продолжительность: 01:28:02
    Перевод: Дублированный (iTunes)
    Оригинальная аудиодорожка: Нет
    Cубтитры: Нет
    Режиссёр: Майкл Тиддес
    Сценарий: Марлон Уайанс, Рик Альварес
    Продюсер: Рик Альварес, Марлон Уайанс, Пэдди Каллен
    Оператор: Дэвид Орткис
    Композитор: Джеймс Дули
    Художник: Эрманно Ди Фебо-Орсини, Синтия Е. Хилл, Ник Рэлбовски
    Монтаж: Лоуренс Джордан
    В ролях: Марлон Уайанс, Кали Хоук, Фред Уиллард, Майк Эппс, Эффион Крокетт, Джейн Сеймур, Флоренс Хендерсон, Эндрю Бэчелор, Дженни Зигрино, Кейт Лэнг Джонсон
    Бюджет: $5 500 000
    Сборы в США: $11 686 940
    Сборы в мире: + $9 477 859 = $21 164 799
    Сборы в России: $612 827
    Мировая премьера: 28 января 2016
    Премьера (РФ): 4 февраля 2016, «Парадиз»
    Описание: Неискушенная студентка колледжа знакомится с состоятельным бизнесменом, чьи сексуальные предпочтения омрачают их отношения.-Качество исходника: WEB-DL 1080p (NNMClub)
    Качество: WEB-DL
    Тип: HD (1080p)
    Контейнер: M4V
    Видео: H.264, 1920x804, 2.40:1, 4 486 Kbps, 25.000 fps
    Аудио 1: Русский/Дублированный (iTunes), AAC / 2.0 / 156 Kbps / 48.0 KHz
    Аудио 2: Русский/Дублированный (iTunes), AC-3 / 5.1 / 384 Kbps / 48.0 KHz
    -

    iTunes Meta Tags

    Sort Name: Fifty Shades of Black
    XID: Apple:vendor_id:2016-909790
    contentID: 1080524141
    Copyright: © 2015 Open Road Films. All Rights Reserved.
    Screenwriters: Марлон Уайанс, Рик Альварес
    Producers: Рик Альварес, Марлон Уайанс, Пэдди Каллен
    Director: Майкл Тиддес
    Cast: Марлон Уайанс, Кали Хоук, Фред Уиллард, Майк Эппс, Эффион Крокетт, Джейн Сеймур, Флоренс Хендерсон, Эндрю Бэчелор, Дженни Зигрино, Кейт Лэнг Джонсон, Руслан Габидуллин, Мария Иващенко, Андрей Казанцев, Денис Некрасов, Станислав Тикунов
    Studio: Universal Pictures
    Rating: 5
    Long Description: Неискушенная студентка колледжа знакомится с состоятельным бизнесменом, чьи сексуальные предпочтения омрачают их отношения.
    Description: Неискушенная студентка колледжа знакомится с состоятельным бизнесменом, чьи сексуальные предпочтения омрачают их отношения.
    Release Date: 2016-01-28T08:00:00Z
    Genre: Comedy
    Artist: Michael Tiddes
    Name: Fifty Shades of Black

    MediaInfo

    General
    Complete name : /Users/imac/HandBrake/Fifty.Shades.of.Black.1080p.WEB-DL.m4v
    Format : MPEG-4
    Codec ID : M4V  (M4V /M4A /mp42/isom)
    File size : 3.10 GiB
    Duration : 1h 28mn
    Overall bit rate mode : Variable
    Overall bit rate : 5 033 Kbps
    Movie name : Fifty Shades of Black
    Performer : Michael Tiddes
    Director : Майкл Тиддес
    Actor : Марлон Уайанс / Кали Хоук / Фред Уиллард / Майк Эппс / Эффион Крокетт / Джейн Сеймур / Флоренс Хендерсон / Эндрю Бэчелор / Дженни Зигрино / Кейт Лэнг Джонсон / Руслан Габидуллин / Мария Иващенко / Андрей Казанцев / Денис Некрасов / Станислав Тикунов
    Screenplay by : Марлон Уайанс / Рик Альварес
    Producer : Рик Альварес / Марлон Уайанс / Пэдди Каллен
    Production studio : Universal Pictures
    Genre : Comedy
    ContentType : Short Film
    Description : Неискушенная студентка колледжа знакомится с состоятельным бизнесменом, чьи сексуальные предпочтения омрачают их отношения.
    Recorded date : UTC 2016-01-28 08:00:00
    Encoded date : UTC 2016-04-03 09:56:39
    Tagged date : UTC 2016-04-03 09:57:36
    Copyright : © 2015 Open Road Films. All Rights Reserved.
    Cover : Yes
    Rating : None
    Title/Sort : Fifty Shades of Black
    LongDescription : Неискушенная студентка колледжа знакомится с состоятельным бизнесменом, чьи сексуальные предпочтения омрачают их отношения.
    AppleStoreCatalogID : 1080524141
    Vendor : Apple:vendor_id:2016-909790
    ContentRating : mpaa|R|400|
    Video #1
    ID : 1
    Format : AVC
    Format/Info : Advanced Video Codec
    Format profile : High@L4
    Format settings, CABAC : Yes
    Format settings, ReFrames : 5 frames
    Codec ID : avc1
    Codec ID/Info : Advanced Video Coding
    Duration : 1h 28mn
    Bit rate : 4 486 Kbps
    Width : 1 920 pixels
    Height : 804 pixels
    Display aspect ratio : 2.40:1
    Frame rate mode : Constant
    Frame rate : 25.000 fps
    Color space : YUV
    Chroma subsampling : 4:2:0
    Bit depth : 8 bits
    Scan type : Progressive
    Bits/(Pixel*Frame) : 0.116
    Stream size : 2.76 GiB (89%)
    Title : Main Program
    Language : English
    Encoded date : UTC 2016-04-03 09:56:39
    Tagged date : UTC 2016-04-03 09:56:44
    Color range : Limited
    Color primaries : BT.709
    Transfer characteristics : BT.709
    Matrix coefficients : BT.709
    Menus : 4,5
    Video #2
    ID : 5
    Format : JPEG
    Codec ID : jpeg
    Duration : 1h 28mn
    Bit rate mode : Variable
    Bit rate : 1 059 bps
    Width : 640 pixels
    Height : 268 pixels
    Display aspect ratio : 2.40:1
    Frame rate mode : Variable
    Frame rate : 0.003 fps
    Minimum frame rate : 0.001 fps
    Maximum frame rate : 0.007 fps
    Color space : YUV
    Chroma subsampling : 4:2:0
    Bit depth : 8 bits
    Compression mode : Lossy
    Bits/(Pixel*Frame) : 2.058
    Stream size : 603 KiB (0%)
    Title : Chapter Images
    Language : English
    Default : No
    Encoded date : UTC 2016-04-03 09:56:50
    Tagged date : UTC 2016-04-03 09:56:50
    Menu For : 1
    Audio #1
    ID : 2
    Format : AAC
    Format/Info : Advanced Audio Codec
    Format profile : LC
    Codec ID : 40
    Duration : 1h 28mn
    Bit rate mode : Variable
    Bit rate : 156 Kbps
    Maximum bit rate : 224 Kbps
    Channel(s) : 2 channels
    Channel positions : Front: L R
    Sampling rate : 48.0 KHz
    Frame rate : 46.875 fps (1024 spf)
    Compression mode : Lossy
    Stream size : 98.3 MiB (3%)
    Title : Russian Stereo
    Language : Russian
    Default : Yes
    Alternate group : 1
    Encoded date : UTC 2016-04-03 09:56:39
    Tagged date : UTC 2016-04-03 09:56:45
    Fallback From : 3
    Audio #2
    ID : 3
    Format : AC-3
    Format/Info : Audio Coding 3
    Mode extension : CM (complete main)
    Format settings, Endianness : Big
    Codec ID : ac-3
    Duration : 1h 28mn
    Bit rate mode : Constant
    Bit rate : 384 Kbps
    Channel(s) : 6 channels
    Channel positions : Front: L C R, Side: L R, LFE
    Sampling rate : 48.0 KHz
    Frame rate : 31.250 fps (1536 spf)
    Bit depth : 16 bits
    Compression mode : Lossy
    Stream size : 242 MiB (8%)
    Title : Russian DD 5.1
    Language : Russian
    Default : Inherited From: 2
    Alternate group : 1
    Encoded date : UTC 2016-04-03 09:56:39
    Tagged date : UTC 2016-04-03 09:56:44
    Fallback To : 2
    Menu #1
    00:00:00.000 : 1
    00:02:33.320 : 2
    00:08:58.520 : 3
    00:14:53.200 : 4
    00:20:10.400 : 5
    00:25:35.520 : 6
    00:31:15.440 : 7
    00:36:06.960 : 8
    00:42:32.600 : 9
    00:47:08.920 : 10
    00:57:02.160 : 11
    01:01:58.200 : 12
    01:09:52.800 : 13
    01:16:55.680 : 14
    Menu #2
    ID : 4
    Codec ID : text
    Duration : 1h 28mn
    Language : English
    Encoded date : UTC 2016-04-03 09:56:45
    Tagged date : UTC 2016-04-03 09:56:45
    Menu For : 1
    00:00:00.000 : 1
    00:02:33.320 : 2
    00:08:58.520 : 3
    00:14:53.200 : 4
    00:20:10.400 : 5
    00:25:35.520 : 6
    00:31:15.440 : 7
    00:36:06.960 : 8
    00:42:32.600 : 9
    00:47:08.920 : 10
    00:57:02.160 : 11
    01:01:58.200 : 12
    01:09:52.800 : 13
    01:16:55.680 : 14
    Bit rate mode : VBR

    Скриншоты

    -

    Релиз подготовлен для просмотра на Apple TV, iPad, iPhone, iPod Touch.
    Для просмотра данного релиза на компьютере с ОС Windows рекомендуется использовать VLC media player
    Скачать .torrent

    Скачать торрент-файл бесплатно и на максимальной скорости!

    Как скачивать? · Что такое торрент? · Рейтинг и ограничения

    !ВНИМАНИЕ!
    Сайт не распространяет и не хранит электронные версии произведений, а занимается лишь лишь предоставлением доступа к создаваемому пользователями каталогу ссылок на торрент-файлы, которые содержат только списки хеш-сумм, убедительная просьба с жалобами обращаться напрямую к пользователю. Файлы для обмена на трекере предоставлены пользователями сайта, и администрация не несёт ответственности за их содержание. Просьба не заливать файлы, защищенные авторскими правами, а также файлы нелегального содержания!


    _________________
    [Профиль] [ЛС]
    Показать сообщения:    
    Ответить на тему

    Текущее время: Сегодня, в 03:07

    Часовой пояс: GMT + 2



    Вы не можете начинать темы
    Вы не можете отвечать на сообщения
    Вы не можете редактировать свои сообщения
    Вы не можете удалять свои сообщения
    Вы не можете голосовать в опросах
    Вы не можете прикреплять файлы к сообщениям
    Вы не можете скачивать файлы