BitTorrentTracker PerecTracker.org
BitTorrentTracker PerecTracker.org
    
Регистрация  ·  Вход
 
 · 
Забыли пароль?

  • В центре внимания / Spotlight (Том МакКарти / Tom McCarthy) [2015 г., США, Канада, драма, биография, история, BDRip] MVO (BD RUS) + Original Eng + Sub (Rus, Eng)

    Ответить на тему
     
    Автор Сообщение

    Light

    Создавать темы 03-Апр-2016 04:05

           

    [Цитировать]

    -В центре внимания / Spotlight«Читай между строк»Страна: США, Канада
    Студия: Anonymous Content, First Look Media, Participant Media, Rocklin / Faust
    Жанр: драма, биография, история
    Год выпуска: 2015
    Продолжительность: 02:09:08-Перевод: Профессиональный (многоголосый закадровый) BD RUS
    Оригинальная аудиодорожка: английская
    Cубтитры: русские, английские
    Режиссер: Том МакКарти / Tom McCarthy
    В ролях: Марк Руффало, Майкл Китон, Рэйчел МакАдамс, Лив Шрайбер, Джон Слэттери, Стэнли Туччи, Брайан Д’Арси Джеймс, Елена Стайтелер, Джин Аморозо, Даг Мюррэй
    Описание: Основанная на реальных событиях история журналистского расследования одного из самых громких в истории США секс-скандалов. Корреспонденты бостонской газеты разоблачают случаи педофилии, в которых обвиняются представители Церкви…-
    Сэмпл: скачать-Релиз от -
    Автор рипа: Elheym
    Качество: BDRip (источник: / Blu-ray US [SPOTLIGHT_BLUEBIRD] / 1080p)
    Контейнер: AVI
    Видео: 704x384 (1.83:1), 23.976 fps, XviD build 65 ~2028 kbps avg, 0.31 bit/pixel
    Аудио #1: Русский: AC3, 5.1, 48 kHz, ~384 Кбит/с | Профессиональный (многоголосый закадровый) BD RUS |
    Аудио #2: Английский: AC3, 5.1, 48 kHz, ~384 Кбит/с | Оригинал | (отдельно, в составе раздачи)
    Субтитры: русские (полные x2: BlueBird, Нотабеноид), английские (полные, SDH, SDH цветные)
    Размер: 2234.72 Mb (1/2 DVD)

    MediaInfo

    Полное имя : V.centre.vnimaniya.2015.RUS.BDRip.XviD.AC3.-HQCLUB.avi
    Формат : AVI
    Формат/Информация : Audio Video Interleave
    Профиль формата : OpenDML
    Размер файла : 2,18 Гбайт
    Продолжительность : 2 ч. 9 м.
    Общий поток : 2419 Кбит/сек
    Название фильма : В центре внимания / Spotlight (2015) BDRip
    Рип от : Elheym
    Программа кодирования : VirtualDubMod 1.5.10.2 (build 2540/release)
    Авторское право : HQCLUB
    Примечание : 02.04.2016
    Видео
    Идентификатор : 0
    Формат : MPEG-4 Visual
    Профиль формата : Advanced Simple@L5
    Параметр BVOP формата : 1
    Параметр QPel формата : Нет
    Параметр GMC формата : Без точки перехода
    Параметр матрицы формата : Выборочная
    Идентификатор кодека : XVID
    Идентификатор кодека/Подсказка : XviD
    Продолжительность : 2 ч. 9 м.
    Битрейт : 2023 Кбит/сек
    Ширина : 704 пикселя
    Высота : 384 пикселя
    Соотношение сторон : 1,85:1
    Частота кадров : 23,976 (24000/1001) кадра/сек
    Цветовое пространство : YUV
    Субдискретизация насыщенности : 4:2:0
    Битовая глубина : 8 бит
    Тип развёртки : Прогрессивная
    Метод сжатия : С потерями
    Бит/(Пиксели*Кадры) : 0.312
    Размер потока : 1,82 Гбайт (84%)
    Библиотека кодирования : XviD 65
    Аудио
    Идентификатор : 1
    Формат : AC-3
    Формат/Информация : Audio Coding 3
    Расширение режима : CM (complete main)
    Параметр Endianness формата : Big
    Идентификатор кодека : 2000
    Продолжительность : 2 ч. 9 м.
    Вид битрейта : Постоянный
    Битрейт : 384 Кбит/сек
    Каналы : 6 каналов
    Расположение каналов : Front: L C R, Side: L R, LFE
    Частота : 48,0 КГц
    Частота кадров : 31,250 кадров/сек (1536 spf)
    Метод сжатия : С потерями
    Размер потока : 355 Мбайт (16%)
    Выравнивание : Разделение по промежуткам
    Продолжительность промежутка : 42 мс. (1,00 видеокадр)
    Время предзагрузки промежутка : 500 мс.

    Скриншоты

    Цитата:
    Цитата:

    • Перевод русских субтитров от Нотабеноид выполнили: platonych, vedpo, IgorLis, etozhemad, tomasmor, Subfinder, Dzhuki, Megasmile, SabinaVia, lip3D, vstork, p_zombie, ascendancy, qwiop
    • Перевод Д. Есарева доступен благодаря пользователям: RW, shandorra, mv73, Shrooms, kidman644, guinness, shagrath88, J. Green, RafL, uuppi, ana2363. Работа со звуком - Переводман.
    Скачать .torrent

    Скачать торрент-файл бесплатно и на максимальной скорости!

    Как скачивать? · Что такое торрент? · Рейтинг и ограничения

    !ВНИМАНИЕ!
    Сайт не распространяет и не хранит электронные версии произведений, а занимается лишь лишь предоставлением доступа к создаваемому пользователями каталогу ссылок на торрент-файлы, которые содержат только списки хеш-сумм, убедительная просьба с жалобами обращаться напрямую к пользователю. Файлы для обмена на трекере предоставлены пользователями сайта, и администрация не несёт ответственности за их содержание. Просьба не заливать файлы, защищенные авторскими правами, а также файлы нелегального содержания!


    _________________
    [Профиль] [ЛС]
    Показать сообщения:    
    Ответить на тему

    Текущее время: Сегодня, в 04:01

    Часовой пояс: GMT + 2



    Вы не можете начинать темы
    Вы не можете отвечать на сообщения
    Вы не можете редактировать свои сообщения
    Вы не можете удалять свои сообщения
    Вы не можете голосовать в опросах
    Вы не можете прикреплять файлы к сообщениям
    Вы не можете скачивать файлы