BitTorrentTracker PerecTracker.org
BitTorrentTracker PerecTracker.org
    
Регистрация  ·  Вход
 
 · 
Забыли пароль?

  • Омерзительная восьмерка / The Hateful Eight (Квентин Тарантино / Quentin Tarantino) [2015, триллер, драма, криминал, BDRip-AVC] DUB + Subs

    Ответить на тему
     
    Автор Сообщение

    Light

    Создавать темы 03-Апр-2016 04:05

           

    [Цитировать]

    Омерзительная восьмерка / The Hateful Eight«Без хорошей причины сюда не лезут»-
    Страна: США
    Жанр: триллер, драма, криминал, детектив, вестерн
    Год выпуска: 2015
    Продолжительность: 02:47:45-Перевод: Профессиональный (дублированный)
    Cубтитры: Русские (форс. + полные), Английские-Режиссер: Квентин Тарантино / Quentin Tarantino-В ролях: Курт Рассел / Kurt Russell (John Ruth), Сэмюэл Л. Джексон / Samuel L. Jackson (Major Marquis Warren), Тим Рот / Tim Roth (Oswaldo Mobray), Майкл Мэдсен / Michael Madsen (Joe Gage), Дженнифер Джейсон Ли / Jennifer Jason Leigh (Daisy Domergue), Уолтон Гоггинс / Walton Goggins (Sheriff Chris Mannix), Демиан Бишир / Demián Bichir (в титрах: Demian Bichir) (Bob), Брюс Дерн / Bruce Dern (General Sandy Smithers), Джеймс Паркс / James Parks (O.B Jackson), Дэна Гурье / Dana Gourrier (Minnie Mink), Зои Белл / Zoë Bell (Six-Horse Judy), Ли Хорсли / Lee Horsley (Ed)-Описание:
    США после Гражданской войны. Легендарный охотник за головами Джон Рут по кличке Вешатель конвоирует заключенную. По пути к ним прибиваются еще несколько путешественников. Снежная буря вынуждает компанию искать укрытие в лавке на отшибе, где уже расположилось весьма пестрое общество: генерал конфедератов, мексиканец, ковбой... И один из них - не тот, за кого себя выдает.
    - -Качество видео: BDRip-AVC /исходник: The.Hateful.Eight.2015.BluRay.1080p.AVC.DTS-HD.MA5.1-MTeam/
    Формат видео: MKV-Видео: x.264 / 938 x 340 / 2.759 / 1048 kbps / 23,976 fps
    Аудио: AAC-HE / 48 KHz / 192 kbps / 3/2 (L,C,R,l,r) + LFE ch /RUS/-СЭМПЛ-

    FAQ по просмотру MKV/h.264/AAC
    MediaInfo/log

    log

    x264 [info]: frame I:1787  Avg QP:13.82  size: 47424
    x264 [info]: frame P:42896 Avg QP:17.27  size: 11791
    x264 [info]: frame B:196652 Avg QP:19.55  size:  3703
    x264 [info]: consecutive B-frames:  1.2%  0.9%  3.9% 10.6% 16.9% 35.4% 10.4%  6.1%  4.9%  2.9%  2.4%  2.5%  1.9%
    x264 [info]: mb I  I16..4:  4.9% 67.9% 27.2%
    x264 [info]: mb P  I16..4:  0.9%  4.7%  1.4%  P16..4: 44.6% 23.2% 19.0%  0.8%  0.3%    skip: 5.1%
    x264 [info]: mb B  I16..4:  0.1%  0.4%  0.1%  B16..8: 38.3% 11.8%  3.1%  direct: 3.8%  skip:42.4%  L0:48.1% L1:41.2% BI:10.7%
    x264 [info]: 8x8 transform intra:67.3% inter:51.9%
    x264 [info]: direct mvs  spatial:98.2% temporal:1.8%
    x264 [info]: coded y,uvDC,uvAC intra: 79.6% 79.7% 62.5% inter: 15.9% 10.4% 4.5%
    x264 [info]: i16 v,h,dc,p: 56% 15% 15% 14%
    x264 [info]: i8 v,h,dc,ddl,ddr,vr,hd,vl,hu: 17%  9% 12%  8% 10% 11% 10% 10% 12%
    x264 [info]: i4 v,h,dc,ddl,ddr,vr,hd,vl,hu: 30%  7%  6%  8% 10% 10% 10%  9% 10%
    x264 [info]: i8c dc,h,v,p: 40% 26% 22% 12%
    x264 [info]: Weighted P-Frames: Y:97.2% UV:0.9%
    x264 [info]: ref P L0: 43.5%  7.5% 15.4%  7.4%  5.5%  4.7%  3.7%  2.4%  2.0%  1.9%  1.6%  1.6%  1.3%  1.4%  0.1%  0.0%
    x264 [info]: ref B L0: 59.3% 13.6%  8.3%  4.3%  3.4%  2.7%  2.4%  1.5%  1.3%  1.2%  1.1%  0.6%  0.3%
    x264 [info]: ref B L1: 87.5% 12.5%
    x264 [info]: SSIM Mean Y:0.9862433 (18.615db)
    x264 [info]: kb/s:1048.06
    encoded 241335 frames, 31.12 fps, 1048.06 kb/s, 1257.6 MB
    Complete name : J:\Omerzitelnaya.Vosmerka.2015.DUB.BDRip-AVC.AAC.x264-Vaippp.mkv
    Format : Matroska
    Format version : Version 2
    File size : 1.46 GiB
    Duration : 2h 47mn
    Overall bit rate : 1 242 Kbps
    Movie name : The Hateful Eight (2015) - Vaippp
    Encoded date : UTC 2016-04-02 15:33:22
    Writing application : mkvmerge v9.0.1 ('Obstacles') 64bit
    Writing library : libebml v1.3.3 + libmatroska v1.4.4
    Video
    ID : 1
    Format : AVC
    Format/Info : Advanced Video Codec
    Format profile : High@L4.1
    Format settings, CABAC : Yes
    Format settings, ReFrames : 14 frames
    Codec ID : V_MPEG4/ISO/AVC
    Duration : 2h 47mn
    Bit rate : 1 048 Kbps
    Width : 938 pixels
    Height : 340 pixels
    Display aspect ratio : 2.759
    Frame rate mode : Constant
    Frame rate : 23.976 (24000/1001) fps
    Color space : YUV
    Chroma subsampling : 4:2:0
    Bit depth : 8 bits
    Scan type : Progressive
    Bits/(Pixel*Frame) : 0.137
    Stream size : 1.23 GiB (84%)
    Title : Vaippp @ 1048.06 Kbps
    Writing library : x264 core 148 r2665+53 6629127 t_mod_Custom [8-bit@all X86_64]
    Encoding settings : cabac=1 / ref=14 / deblock=1:-2:-1 / analyse=0x3:0x133 / me=umh / subme=10 / psy=1 / fade_compensate=0.00 / psy_rd=0.97:0.00 / mixed_ref=1 / me_range=64 / chroma_me=1 / trellis=2 / 8x8dct=1 / cqm=0 / deadzone=21,11 / fast_pskip=0 / chroma_qp_offset=-2 / threads=11 / lookahead_threads=2 / sliced_threads=0 / nr=0 / decimate=0 / interlaced=0 / bluray_compat=0 / constrained_intra=0 / fgo=0 / bframes=12 / b_pyramid=2 / b_adapt=2 / b_bias=0 / direct=3 / weightb=1 / open_gop=0 / weightp=2 / keyint=240 / keyint_min=22 / scenecut=40 / intra_refresh=0 / rc_lookahead=60 / rc=2pass / mbtree=0 / bitrate=1048 / ratetol=1.0 / qcomp=0.65 / qpmin=0:0:0 / qpmax=69:69:69 / qpstep=4 / cplxblur=20.0 / qblur=0.5 / vbv_maxrate=50000 / vbv_bufsize=62500 / nal_hrd=none / filler=0 / ip_ratio=1.35 / pb_ratio=1.25 / aq=3:0.85 / aq-sensitivity=10.00 / aq-factor=1.00:1.00:1.00 / aq2=0 / aq3=0
    Language : English
    Default : Yes
    Forced : No
    Audio
    ID : 2
    Format : AAC
    Format/Info : Advanced Audio Codec
    Format profile : HE-AAC / LC
    Codec ID : A_AAC
    Duration : 2h 47mn
    Bit rate : 192 Kbps
    Channel(s) : 6 channels
    Channel positions : Front: L C R, Side: L R, LFE
    Sampling rate : 48.0 KHz / 24.0 KHz
    Frame rate : 23.438 fps (1024 spf)
    Compression mode : Lossy
    Delay relative to video : 31ms
    Stream size : 230 MiB (15%)
    Title : AAC 5.1 @ 192 Kbps DUB - iTunes
    Language : Russian
    Default : Yes
    Forced : No
    Text #1
    ID : 3
    Format : UTF-8
    Codec ID : S_TEXT/UTF8
    Codec ID/Info : UTF-8 Plain Text
    Duration : 2h 18mn
    Bit rate : 1 bps
    Count of elements : 13
    Stream size : 1.02 KiB (0%)
    Title : Forced
    Language : Russian
    Default : Yes
    Forced : No
    Text #2
    ID : 4
    Format : UTF-8
    Codec ID : S_TEXT/UTF8
    Codec ID/Info : UTF-8 Plain Text
    Duration : 2h 41mn
    Bit rate : 90 bps
    Count of elements : 1740
    Stream size : 107 KiB (0%)
    Title : Full
    Language : Russian
    Default : No
    Forced : No
    Text #3
    ID : 5
    Format : UTF-8
    Codec ID : S_TEXT/UTF8
    Codec ID/Info : UTF-8 Plain Text
    Duration : 2h 38mn
    Bit rate : 62 bps
    Count of elements : 2633
    Stream size : 72.2 KiB (0%)
    Language : English
    Default : No
    Forced : No
    Menu
    00:00:00.000 : en:Opening Credits
    00:04:33.523 : en:Chapter One: Last Stage to Red Rock
    00:11:36.112 : en:"When the Hangman Catches You, You Hang"
    00:22:01.361 : en:Chapter Two: Son of a Gun
    00:35:02.433 : en:Chapter Three: Minnie's Haberdashery
    00:43:31.900 : en:Frontier Justice
    00:52:12.212 : en:"That Door's a Whore"
    00:59:04.499 : en:"Well cut my legs off and call me shorty!"
    01:08:30.314 : en:"In Cahoots"
    01:16:10.857 : en:Stew
    01:25:18.446 : en:"Startin'to see pictures, ain't ya?"
    01:35:06.492 : en:Chapter Four: Domergue's Got a Secret
    01:42:20.175 : en:"When you get to hell, John, tell'em Daisy Sent You"
    01:50:33.335 : en:"Let's slow it down. Let's slow it way down."
    01:59:32.498 : en:Chapter Five: The Four Passengers
    02:06:43.053 : en:"Are You the Jelly Bean Salesman Around Here?"
    02:13:26.623 : en:"Hello, thank you, goodnight and maybe my name."
    02:19:59.724 : en:Last Chapter: Black Man, White Hell
    02:24:17.023 : en:"OK, bitch, I'll bite"
    02:34:08.113 : en:"Wake Up, White Boy"
    02:39:38.026 : en:The Lincoln Letter
    02:43:22.751 : en:"There Won't Be Many Coming Home"

    Скриншоты



    Сравнениеhttp://perectracker.org/http://perectracker.org/viewtopic.php?t=5183886 http://screenshotcomparison.com/comparison/167814/
    Скачать .torrent

    Скачать торрент-файл бесплатно и на максимальной скорости!

    Как скачивать? · Что такое торрент? · Рейтинг и ограничения

    !ВНИМАНИЕ!
    Сайт не распространяет и не хранит электронные версии произведений, а занимается лишь лишь предоставлением доступа к создаваемому пользователями каталогу ссылок на торрент-файлы, которые содержат только списки хеш-сумм, убедительная просьба с жалобами обращаться напрямую к пользователю. Файлы для обмена на трекере предоставлены пользователями сайта, и администрация не несёт ответственности за их содержание. Просьба не заливать файлы, защищенные авторскими правами, а также файлы нелегального содержания!


    _________________
    [Профиль] [ЛС]
    Показать сообщения:    
    Ответить на тему

    Текущее время: Сегодня, в 04:20

    Часовой пояс: GMT + 2



    Вы не можете начинать темы
    Вы не можете отвечать на сообщения
    Вы не можете редактировать свои сообщения
    Вы не можете удалять свои сообщения
    Вы не можете голосовать в опросах
    Вы не можете прикреплять файлы к сообщениям
    Вы не можете скачивать файлы