BitTorrentTracker PerecTracker.org
BitTorrentTracker PerecTracker.org
    
Регистрация  ·  Вход
 
 · 
Забыли пароль?

  • Замерзшая жертва 3 / Остаться в живых 3 / Fritt vilt III / Cold prey 3 (Миккел Бренне Сандемус / Mikkel Brænne Sandemose) [2010, Норвегия, ужасы, триллер, BDRemux 1080p] 3x VO (RussianGuy27, Steve Ag, V@zz) + Sub Rus, Eng + Original Nor

    Ответить на тему
     
    Автор Сообщение

    Light

    Создавать темы 02-Апр-2016 23:53

           

    [Цитировать]

    -1 часть | 2 часть
    -Замерзшая жертва 3 / Остаться в живых 3 / Fritt vilt III / Cold prey 3-Страна: Норвегия
    Жанр: ужасы, триллер
    Год выпуска: 2010
    Продолжительность: 01:37:38-Перевод: Одноголосый закадровый RussianGuy27
    Перевод 2: Одноголосый закадровый Steve Ag
    Перевод 3: Одноголосый закадровый V@zz
    Cубтитры: русские, английские
    Оригинальная аудиодорожка: норвежский-Режиссер: Миккел Бренне Сандемус / Mikkel Brænne Sandemose
    В ролях: Ида Мари Бакеруд, Ким С. Фалк Йоргенсен, Пал Стокка, Джули Расти, Артур Бернинг, Стурла Руй, Нилс Джонсон.-Описание: Предыстория душераздирающей истории о резне, учиненной жестоким и кровожадным маньяком, среди холодных норвежских снегов. Выживет ли кто-нибудь из главных героев после новой встречи с серийным убийцей, орудующим ледорубом?-Сэмпл-Тип релиза: BDRemux 1080p
    Контейнер: MKV
    Видео: MPEG-4 AVC Video 22455 kbps 1080p / 24 fps / 16:9 / High Profile 4.1
    Аудио: Russian Dolby Digital Audio 448 kbps 5.1 / 48 kHz | RussianGuy27
    Аудио 2: Russian Dolby Digital Audio 192 kbps 2.0 / 48 kHz | Steve Ag
    Аудио 3: Russian Dolby Digital Audio 192 kbps 2.0 / 44.1 kHz | V@zz
    Аудио 4: DTS-HD Master Audio Norwegian 5.1 / 48 kHz / 2177 kbps / 16-bit (DTS Core: 5.1 / 48 kHz / 1509 kbps / 16-bit)
    Формат субтитров: softsub (SRT)

    MI

    GeneralUnique ID : 236084355835742762165343742910947496624 (0xB19C316A731CA6E08CB0E666DEC992B0)Complete name : P:\Слэшеры\Остаться в живых 3 (2010. Fritt vilt III).mkvFormat : MatroskaFormat version : Version 2File size : 17.4 GiBDuration : 1h 37mnOverall bit rate mode : VariableOverall bit rate : 25.5 MbpsMovie name : Release for RuTrackerEncoded date : UTC 2016-03-31 07:26:23Writing application : mkvmerge v4.9.1 ('Ich will') сборка от Jul 11 2011 23:53:15Writing library : libebml v1.2.1 + libmatroska v1.1.1Cover : YesAttachments : cover.jpg
    VideoID : 1Format : AVCFormat/Info : Advanced Video CodecFormat profile : High@L4.1Format settings, CABAC : YesFormat settings, ReFrames : 4 framesCodec ID : V_MPEG4/ISO/AVCDuration : 1h 37mnBit rate mode : VariableMaximum bit rate : 35.0 MbpsWidth : 1 920 pixelsHeight : 1 080 pixelsDisplay aspect ratio : 16:9Frame rate mode : ConstantFrame rate : 24.000 fpsStandard : NTSCColor space : YUVChroma subsampling : 4:2:0Bit depth : 8 bitsScan type : ProgressiveTitle : Fritt.Vilt.3.2010.1080p.Blu-Ray.NORDIC.AVC.DTS-HD.MA.5.1-PPKORELanguage : NorwegianDefault : YesForced : NoColor range : LimitedColor primaries : BT.709Transfer characteristics : BT.709Matrix coefficients : BT.709
    Audio #1ID : 2Format : AC-3Format/Info : Audio Coding 3Mode extension : CM (complete main)Format settings, Endianness : BigCodec ID : A_AC3Duration : 1h 37mnBit rate mode : ConstantBit rate : 448 KbpsChannel(s) : 6 channelsChannel positions : Front: L C R, Side: L R, LFESampling rate : 48.0 KHzFrame rate : 31.250 fps (1536 spf)Compression mode : LossyStream size : 313 MiB (2%)Title : Сергей "Russianguy27" СергеевLanguage : RussianDefault : YesForced : No
    Audio #2ID : 3Format : AC-3Format/Info : Audio Coding 3Mode extension : CM (complete main)Format settings, Endianness : BigCodec ID : A_AC3Duration : 1h 37mnBit rate mode : ConstantBit rate : 192 KbpsChannel(s) : 2 channelsChannel positions : Front: L RSampling rate : 48.0 KHzFrame rate : 31.250 fps (1536 spf)Compression mode : LossyStream size : 134 MiB (1%)Title : Steve AgLanguage : RussianDefault : NoForced : No
    Audio #3ID : 4Format : AC-3Format/Info : Audio Coding 3Mode extension : CM (complete main)Format settings, Endianness : BigCodec ID : A_AC3Duration : 1h 37mnBit rate mode : ConstantBit rate : 192 KbpsChannel(s) : 2 channelsChannel positions : Front: L RSampling rate : 44.1 KHzFrame rate : 28.711 fps (1536 spf)Compression mode : LossyStream size : 134 MiB (1%)Title : V@zzLanguage : RussianDefault : NoForced : No
    Audio #4ID : 5Format : DTSFormat/Info : Digital Theater SystemsFormat profile : MA / CoreMode : 16Format settings, Endianness : BigCodec ID : A_DTSDuration : 1h 37mnBit rate mode : Variable / ConstantBit rate : Unknown / 1 509 KbpsChannel(s) : 6 channelsChannel positions : Front: L C R, Side: L R, LFESampling rate : 48.0 KHzFrame rate : 93.750 fps (512 spf)Bit depth : 16 bitsCompression mode : Lossless / LossyLanguage : NorwegianDefault : NoForced : No
    Text #1ID : 6Format : UTF-8Codec ID : S_TEXT/UTF8Codec ID/Info : UTF-8 Plain TextLanguage : RussianDefault : NoForced : No
    Text #2ID : 7Format : ASSCodec ID : S_TEXT/ASSCodec ID/Info : Advanced Sub Station AlphaCompression mode : LosslessLanguage : EnglishDefault : NoForced : No
    Text #3ID : 8Format : UTF-8Codec ID : S_TEXT/UTF8Codec ID/Info : UTF-8 Plain TextTitle : SDHLanguage : EnglishDefault : NoForced : No
    Menu00:00:00.000 : en:00:00:00.00000:09:14.917 : en:00:09:14.91700:17:27.542 : en:00:17:27.54200:26:00.000 : en:00:26:00.00000:33:52.917 : en:00:33:52.91700:41:53.875 : en:00:41:53.87500:51:32.000 : en:00:51:32.00001:00:36.708 : en:01:00:36.70801:09:23.375 : en:01:09:23.37501:17:15.208 : en:01:17:15.20801:22:02.708 : en:01:22:02.70801:32:57.708 : en:01:32:57.708
    Скриншоты

    Зеркало


    Цитата:
    Цитата:

    • Перевод Steve Ag отсюда. Спасибо [url=profile.php?mode=viewprofile&u=20341200]SteveAG[/url]!
    • Перевод V@zz отсюда.
    • Перевод RussianGuy27 отсюда. Спасибо [url=profile.php?mode=viewprofile&u=3900970]RussianGuy27[/url]!
    • Сохранены оригинальные чаптеры как на Blu-ray.
    Скачать .torrent

    Скачать торрент-файл бесплатно и на максимальной скорости!

    Как скачивать? · Что такое торрент? · Рейтинг и ограничения

    !ВНИМАНИЕ!
    Сайт не распространяет и не хранит электронные версии произведений, а занимается лишь лишь предоставлением доступа к создаваемому пользователями каталогу ссылок на торрент-файлы, которые содержат только списки хеш-сумм, убедительная просьба с жалобами обращаться напрямую к пользователю. Файлы для обмена на трекере предоставлены пользователями сайта, и администрация не несёт ответственности за их содержание. Просьба не заливать файлы, защищенные авторскими правами, а также файлы нелегального содержания!


    _________________
    [Профиль] [ЛС]
    Показать сообщения:    
    Ответить на тему

    Текущее время: Сегодня, в 12:44

    Часовой пояс: GMT + 2



    Вы не можете начинать темы
    Вы не можете отвечать на сообщения
    Вы не можете редактировать свои сообщения
    Вы не можете удалять свои сообщения
    Вы не можете голосовать в опросах
    Вы не можете прикреплять файлы к сообщениям
    Вы не можете скачивать файлы