BitTorrentTracker PerecTracker.org
BitTorrentTracker PerecTracker.org
    
Регистрация  ·  Вход
 
 · 
Забыли пароль?

  • Защитник / Concussion (Питер Ландесман / Peter Landesman) [2015, США, драма, спорт, BDRip 720p] Dub (iTunes) + Sub Rus, Eng + Original Eng

    Ответить на тему
     
    Автор Сообщение

    Light

    Создавать темы 02-Апр-2016 23:53

           

    [Цитировать]

    -Защитник / Concussion-Страна: США
    Жанр: Драма, спорт
    Год выпуска: 2015
    Продолжительность: 02:02:49-Перевод: Профессиональный (дублированный) iTunes
    Cубтитры: русские [Full, Forced], английские [Full, SDH]
    Режиссер: Питер Ландесман / Peter Landesman
    В ролях: Уилл Смит, Гугу Эмбата-Ро, Люк Уилсон, Алек Болдуин, Битси Таллок, Стивен Мойер, Адевале Акинойе-Агбаже, Эдди Марсан, Дэвид Морс, Альберт Брукс-Описание: Америка потрясена чередой неожиданных и необъяснимых смертей знаменитых спортсменов. Разгадать загадку предстоит талантливому молодому нейрохирургу, но, как оказалось, не все готовы услышать жестокую правду…- -Качество видео: BDRip 720p
    Формат видео: MKV
    Видео: H.264, 1280x536, (2.40:1), 23.976 fps, 3741 kbps, 0.227 Bits/(Pixel*Frame)
    Аудио: 48 kHz, AC3 Dolby Digital, 3/2 (L,C,R,l,r) + LFE ch, ~384.00 kbps avg Rus
    Аудио 2: 48 kHz, DTS, 3/2 (L,C,R,l,r) + LFE ch, ~1509.00 kbps avg Eng
    Формат субтитров: softsub (SRT)-

    MediaInfo

    General
    Unique ID : 196994596987172426325340898578358785208 (0x9433C781A5AE1B91A9517FB707B6D4B8)
    Complete name : D:\Фильмы\Concussion.2015.BDRip.720p.mkv
    Format : Matroska
    Format version : Version 2
    File size : 4.83 GiB
    Duration : 2h 2mn
    Overall bit rate : 5 633 Kbps
    Encoded date : UTC 2016-03-31 20:18:07
    Writing application : mkvmerge v4.2.0 ('No Talking') сборка от Jul 28 2010 18:38:23
    Writing library : libebml v1.0.0 + libmatroska v1.0.0
    Video
    ID : 1
    Format : AVC
    Format/Info : Advanced Video Codec
    Format profile : High@L4.1
    Format settings, CABAC : Yes
    Format settings, ReFrames : 12 frames
    Muxing mode : Header stripping
    Codec ID : V_MPEG4/ISO/AVC
    Duration : 2h 2mn
    Bit rate : 3 627 Kbps
    Width : 1 280 pixels
    Height : 536 pixels
    Display aspect ratio : 2.40:1
    Frame rate mode : Constant
    Frame rate : 23.976 (24000/1001) fps
    Color space : YUV
    Chroma subsampling : 4:2:0
    Bit depth : 8 bits
    Scan type : Progressive
    Bits/(Pixel*Frame) : 0.221
    Stream size : 3.11 GiB (64%)
    Writing library : x264 core 146 r0+2586 e393126 t_mod_Custom [8-bit@all X86_64]
    Encoding settings : cabac=1 / ref=12 / deblock=1:-3:-3 / analyse=0x3:0x133 / me=umh / subme=10 / psy=1 / fade_compensate=0.00 / psy_rd=1.00:0.00 / mixed_ref=1 / me_range=24 / chroma_me=1 / trellis=2 / 8x8dct=1 / cqm=0 / deadzone=21,11 / fast_pskip=0 / chroma_qp_offset=-2 / threads=12 / lookahead_threads=3 / sliced_threads=0 / nr=0 / decimate=0 / interlaced=0 / bluray_compat=0 / constrained_intra=0 / fgo=0 / bframes=10 / b_pyramid=2 / b_adapt=2 / b_bias=0 / direct=3 / weightb=1 / open_gop=0 / weightp=2 / keyint=250 / keyint_min=23 / scenecut=40 / intra_refresh=0 / rc_lookahead=60 / rc=crf / mbtree=0 / crf=16.6000 / qcomp=0.65 / qpmin=0:0:0 / qpmax=69:69:69 / qpstep=4 / vbv_maxrate=62500 / vbv_bufsize=78125 / crf_max=0.0 / nal_hrd=none / filler=0 / ip_ratio=1.30 / pb_ratio=1.20 / aq=3:0.75 / aq-sensitivity=10.00 / aq-factor=1.00:1.00:1.00 / aq2=0 / aq3=0
    Language : English
    Default : Yes
    Forced : No
    Color range : Limited
    Matrix coefficients : BT.709
    Statistics Tags Issue : mkvmerge v8.3.0 ('Over the Horizon') 64bit 2016-03-28 18:04:00 / mkvmerge v4.2.0 ('No Talking') сборка от Jul 28 2010 18:38:23 2016-03-31 20:18:07
    FromStats_BitRate : 3741146
    FromStats_Duration : 02:02:49.362000000
    FromStats_FrameCount : 176688
    FromStats_StreamSize : 3446232815
    Audio #1
    ID : 2
    Format : AC-3
    Format/Info : Audio Coding 3
    Mode extension : CM (complete main)
    Format settings, Endianness : Big
    Muxing mode : Header stripping
    Codec ID : A_AC3
    Duration : 2h 2mn
    Bit rate mode : Constant
    Bit rate : 384 Kbps
    Channel(s) : 6 channels
    Channel positions : Front: L C R, Side: L R, LFE
    Sampling rate : 48.0 KHz
    Frame rate : 31.250 fps (1536 spf)
    Compression mode : Lossy
    Delay relative to video : 970ms
    Stream size : 337 MiB (7%)
    Default : No
    Forced : No
    Statistics Tags Issue : mkvmerge v8.3.0 ('Over the Horizon') 64bit 2016-03-28 18:04:00 / mkvmerge v4.2.0 ('No Talking') сборка от Jul 28 2010 18:38:23 2016-03-31 20:18:07
    FromStats_BitRate : 384000
    FromStats_Duration : 02:02:49.344000000
    FromStats_FrameCount : 230292
    FromStats_StreamSize : 353728512
    Audio #2
    ID : 3
    Format : DTS
    Format/Info : Digital Theater Systems
    Mode : 16
    Format settings, Endianness : Big
    Muxing mode : Header stripping
    Codec ID : A_DTS
    Duration : 2h 2mn
    Bit rate mode : Constant
    Bit rate : 1 509 Kbps
    Channel(s) : 6 channels
    Channel positions : Front: L C R, Side: L R, LFE
    Sampling rate : 48.0 KHz
    Frame rate : 93.750 fps (512 spf)
    Bit depth : 24 bits
    Compression mode : Lossy
    Delay relative to video : 11ms
    Stream size : 1.29 GiB (27%)
    Title : English DTS 5.1@1 509 Kbps
    Language : English
    Default : No
    Forced : No
    Statistics Tags Issue : mkvmerge v8.3.0 ('Over the Horizon') 64bit 2016-03-28 18:04:00 / mkvmerge v4.2.0 ('No Talking') сборка от Jul 28 2010 18:38:23 2016-03-31 20:18:07
    FromStats_BitRate : 1508999
    FromStats_Duration : 02:02:49.366000000
    FromStats_FrameCount : 690878
    FromStats_StreamSize : 1390046536
    Text #1
    ID : 4
    Format : UTF-8
    Codec ID : S_TEXT/UTF8
    Codec ID/Info : UTF-8 Plain Text
    Title : Forced
    Language : Russian
    Default : Yes
    Forced : No
    Text #2
    ID : 5
    Format : UTF-8
    Codec ID : S_TEXT/UTF8
    Codec ID/Info : UTF-8 Plain Text
    Title : Full
    Language : Russian
    Default : No
    Forced : No
    Text #3
    ID : 6
    Format : UTF-8
    Codec ID : S_TEXT/UTF8
    Codec ID/Info : UTF-8 Plain Text
    Title : Original
    Language : English
    Default : No
    Forced : No
    Text #4
    ID : 7
    Format : UTF-8
    Codec ID : S_TEXT/UTF8
    Codec ID/Info : UTF-8 Plain Text
    Title : Original / SDH
    Language : English
    Default : No
    Forced : No
    Menu
    00:00:00.000 : en:00:00:00.000
    00:07:26.696 : en:00:07:26.696
    00:14:41.631 : en:00:14:41.631
    00:21:48.098 : en:00:21:48.098
    00:29:36.566 : en:00:29:36.566
    00:37:42.927 : en:00:37:42.927
    00:43:44.539 : en:00:43:44.539
    00:51:30.713 : en:00:51:30.713
    00:59:35.447 : en:00:59:35.447
    01:06:58.264 : en:01:06:58.264
    01:13:07.508 : en:01:13:07.508
    01:22:18.308 : en:01:22:18.308
    01:30:34.721 : en:01:30:34.721
    01:38:15.098 : en:01:38:15.098
    01:46:46.942 : en:01:46:46.942
    01:53:34.808 : en:01:53:34.808

    -

    Скриншоты

    -
    Скачать .torrent

    Скачать торрент-файл бесплатно и на максимальной скорости!

    Как скачивать? · Что такое торрент? · Рейтинг и ограничения

    !ВНИМАНИЕ!
    Сайт не распространяет и не хранит электронные версии произведений, а занимается лишь лишь предоставлением доступа к создаваемому пользователями каталогу ссылок на торрент-файлы, которые содержат только списки хеш-сумм, убедительная просьба с жалобами обращаться напрямую к пользователю. Файлы для обмена на трекере предоставлены пользователями сайта, и администрация не несёт ответственности за их содержание. Просьба не заливать файлы, защищенные авторскими правами, а также файлы нелегального содержания!


    _________________
    [Профиль] [ЛС]
    Показать сообщения:    
    Ответить на тему

    Текущее время: Сегодня, в 01:56

    Часовой пояс: GMT + 2



    Вы не можете начинать темы
    Вы не можете отвечать на сообщения
    Вы не можете редактировать свои сообщения
    Вы не можете удалять свои сообщения
    Вы не можете голосовать в опросах
    Вы не можете прикреплять файлы к сообщениям
    Вы не можете скачивать файлы