BitTorrentTracker PerecTracker.org
BitTorrentTracker PerecTracker.org
    
Регистрация  ·  Вход
 
 · 
Забыли пароль?

  • Дочь Бога / Daughter of God / Exposed (Деклан Дэйл / Declan Dale) [2016, США, Драма, HDRip] MVO (Paradox & Omskbird records)

    Ответить на тему
     
    Автор Сообщение

    rechyn

    Создавать темы 02-Апр-2016 19:48

           

    [Цитировать]

    Дочь Бога / Daughter of God / Exposed
    Страна: США
    Жанр: Драма
    Год выпуска: 2016
    Продолжительность: 01:41:53
    Перевод: Любительский (многоголосый закадровый) Paradox & Omskbird records
    Cубтитры: нет
    Оригинальная аудиодорожка: нет
    Режиссер: Деклан Дэйл / Declan Dale
    В ролях: Киану Ривз, Ана де Армас, Мира Сорвино, Биг Дэдди Кэйн, Кристофер МакДональд, Лаура Гомез, Мелисса Линтон, Клара Вонг, Майкл Рисполи, Дения Браче
    Описание: В метро происходит жуткое преступление: убит детектив по имени Джошуа. За поиски убийцы берется его напарник, Скотт Галбан. Возле трупа лежал фотоаппарат, снимки на котором Скотт смотрит постоянно, пытаясь найти зацепку. Он находит свидетелей, но убийца быстрее: свидетели умирают один за другим до беседы со Скоттом. Осталась лишь Изабель, которая видела убийство, а теперь боится смерти.
    Группа
    желает всем приятного просмотра!Качество видео: HDRip [BDRip 1080p]
    Формат видео: AVI
    Видео: 640x272 (2.35:1), 24 fps, XviD build 73 ~882 kbps avg, 0.21 bit/pixel
    Аудио: 48 kHz, MPEG Layer 3, 2 ch, ~128.00 kbps avg
    Сэмпл: http://multi-up.com/1095631
    Сравнениеhttp://perectracker.org/http://perectracker.org/viewtopic.php?t=5165208
    http://screenshotcomparison.com/comparison/167727

    MediaInfo

    eneral
    Complete name : D:\Торренты\Daughter of God_Drek_Rutracker.org.avi
    Format : AVI
    Format/Info : Audio Video Interleave
    File size : 743 MiB
    Duration : 1h 41mn
    Overall bit rate : 1 020 Kbps
    Writing application : VirtualDubMod 1.5.10.2 (build 2540/release)
    Writing library : VirtualDubMod build 2540/release
    Video
    ID : 0
    Format : MPEG-4 Visual
    Format profile : Advanced Simple@L5
    Format settings, BVOP : 2
    Format settings, QPel : No
    Format settings, GMC : No warppoints
    Format settings, Matrix : Custom
    Codec ID : XVID
    Codec ID/Hint : XviD
    Duration : 1h 41mn
    Bit rate : 883 Kbps
    Width : 640 pixels
    Height : 272 pixels
    Display aspect ratio : 2.35:1
    Frame rate : 24.000 fps
    Color space : YUV
    Chroma subsampling : 4:2:0
    Bit depth : 8 bits
    Scan type : Progressive
    Compression mode : Lossy
    Bits/(Pixel*Frame) : 0.211
    Stream size : 643 MiB (87%)
    Writing library : XviD 73
    Audio
    ID : 1
    Format : MPEG Audio
    Format version : Version 1
    Format profile : Layer 3
    Codec ID : 55
    Codec ID/Hint : MP3
    Duration : 1h 41mn
    Bit rate mode : Constant
    Bit rate : 128 Kbps
    Channel(s) : 2 channels
    Sampling rate : 48.0 KHz
    Compression mode : Lossy
    Stream size : 93.3 MiB (13%)
    Alignment : Aligned on interleaves
    Interleave, duration : 42 ms (1.00 video frame)
    Interleave, preload duratio : 504 ms
    Writing library : LAME3.99r

    Скриншот c названием фильма

    Скриншоты
    Скачать .torrent

    Скачать торрент-файл бесплатно и на максимальной скорости!

    Как скачивать? · Что такое торрент? · Рейтинг и ограничения

    !ВНИМАНИЕ!
    Сайт не распространяет и не хранит электронные версии произведений, а занимается лишь лишь предоставлением доступа к создаваемому пользователями каталогу ссылок на торрент-файлы, которые содержат только списки хеш-сумм, убедительная просьба с жалобами обращаться напрямую к пользователю. Файлы для обмена на трекере предоставлены пользователями сайта, и администрация не несёт ответственности за их содержание. Просьба не заливать файлы, защищенные авторскими правами, а также файлы нелегального содержания!


    _________________
    [Профиль] [ЛС]
    Показать сообщения:    
    Ответить на тему

    Текущее время: Сегодня, в 11:59

    Часовой пояс: GMT + 2



    Вы не можете начинать темы
    Вы не можете отвечать на сообщения
    Вы не можете редактировать свои сообщения
    Вы не можете удалять свои сообщения
    Вы не можете голосовать в опросах
    Вы не можете прикреплять файлы к сообщениям
    Вы не можете скачивать файлы