Register  ·  Log in
Forgot password?

  • Лес призраков / The Forest (Джейсон Зада / Jason Zada) [2016, США, Ужасы, детектив, HDRip] Dub (iTunes)

    Reply to topic
    Author Message


    Post 02-Apr-2016 20:48



    Лес призраков / The Forest
    Страна: США
    Жанр: Ужасы, детектив
    Год выпуска: 2016
    Продолжительность: 01:33:17
    Перевод: Профессиональный (дублированный) iTunes
    Cубтитры: нет
    Оригинальная аудиодорожка: нет
    Режиссер: Джейсон Зада / Jason Zada
    В ролях: Натали Дормер, Оуэн Мэкен, Стефани Вогт, Осаму Танпопо, Ясуо Тобисима, Ибуки Канеда, Акико Ивасе, Кикуо Ичикава, Норико Сакура, Йозеф Аоки
    Описание: Юная американка Сара отправляется на поиски сестры-близняшки, которая таинственным образом исчезла на японском острове Хонсю. Поиски приводят к подножью горы Фудзи, в таинственный лес, который пользуется дурной славой. Сара не подозревала, что она вступает в мрачный мир призраков, злых и измученных душ, которые охотятся на любого, кто блуждает по их мрачному лесу…
    желает всем приятного просмотра!Качество видео: HDRip [BDRip 1080p]
    Формат видео: AVI
    Видео: 640x352 (1.82:1), 23.976 fps, XviD build 73 ~967 kbps avg, 0.18 bit/pixel
    Аудио: 48 kHz, MPEG Layer 3, 2 ch, ~128.00 kbps avg


    Complete name : D:\Торренты\The
    Format : AVI
    Format/Info : Audio Video Interleave
    File size : 737 MiB
    Duration : 1h 33mn
    Overall bit rate : 1 104 Kbps
    Writing application : VirtualDubMod (build 2540/release)
    Writing library : VirtualDubMod build 2540/release
    ID : 0
    Format : MPEG-4 Visual
    Format profile : Advanced Simple@L5
    Format settings, BVOP : 2
    Format settings, QPel : No
    Format settings, GMC : No warppoints
    Format settings, Matrix : Custom
    Codec ID : XVID
    Codec ID/Hint : XviD
    Duration : 1h 33mn
    Bit rate : 967 Kbps
    Width : 640 pixels
    Height : 352 pixels
    Display aspect ratio : 16:9
    Frame rate : 23.976 (24000/1001) fps
    Color space : YUV
    Chroma subsampling : 4:2:0
    Bit depth : 8 bits
    Scan type : Progressive
    Compression mode : Lossy
    Bits/(Pixel*Frame) : 0.179
    Stream size : 645 MiB (88%)
    Writing library : XviD 73
    ID : 1
    Format : MPEG Audio
    Format version : Version 1
    Format profile : Layer 3
    Codec ID : 55
    Codec ID/Hint : MP3
    Duration : 1h 33mn
    Bit rate mode : Constant
    Bit rate : 128 Kbps
    Channel(s) : 2 channels
    Sampling rate : 48.0 KHz
    Compression mode : Lossy
    Stream size : 85.4 MiB (12%)
    Alignment : Aligned on interleaves
    Interleave, duration : 42 ms (1.00 video frame)
    Interleave, preload duratio : 504 ms
    Writing library : LAME3.99r
    Encoding settings : -m s -V 4 -q 2 -lowpass 17 -b 128

    Download .torrent

    Download free and at maximum speed!

    How to Download? · What is a torrent? · Ratings and Limitations

    The site does not extend and does not store electronic(digital) versions of products, and only gives access to a reference catalogue created by users on torrent-files which contain only lists of the hash-sums, the earnest entreaty, with complaints(abuse) to access directly to the user. Files for an exchange on tracker are given by users of a site, and the administration does not bear the responsibility for their maintenance. The request to not fill in the files protected by copyrights, and also files of the illegal maintenance!

    [Profile] [PM]
    Display posts from previous:    
    Reply to topic

    The time now is: Today 01:02

    All times are GMT + 3 Hours

    You cannot post new topics in this forum
    You cannot reply to topics in this forum
    You cannot edit your posts in this forum
    You cannot delete your posts in this forum
    You cannot vote in polls in this forum
    You cannot attach files in this forum
    You cannot download files in this forum