BitTorrentTracker PerecTracker.org
BitTorrentTracker PerecTracker.org
    
Регистрация  ·  Вход
 
 · 
Забыли пароль?

  • Лес призраков / The Forest (Джейсон Зада / Jason Zada) [2016, США, Ужасы, детектив, HDRip] Dub (iTunes)

    Ответить на тему
     
    Автор Сообщение

    rechyn

    Создавать темы 02-Апр-2016 19:48

           

    [Цитировать]

    Лес призраков / The Forest
    Страна: США
    Жанр: Ужасы, детектив
    Год выпуска: 2016
    Продолжительность: 01:33:17
    Перевод: Профессиональный (дублированный) iTunes
    Cубтитры: нет
    Оригинальная аудиодорожка: нет
    Режиссер: Джейсон Зада / Jason Zada
    В ролях: Натали Дормер, Оуэн Мэкен, Стефани Вогт, Осаму Танпопо, Ясуо Тобисима, Ибуки Канеда, Акико Ивасе, Кикуо Ичикава, Норико Сакура, Йозеф Аоки
    Описание: Юная американка Сара отправляется на поиски сестры-близняшки, которая таинственным образом исчезла на японском острове Хонсю. Поиски приводят к подножью горы Фудзи, в таинственный лес, который пользуется дурной славой. Сара не подозревала, что она вступает в мрачный мир призраков, злых и измученных душ, которые охотятся на любого, кто блуждает по их мрачному лесу…
    Группа
    желает всем приятного просмотра!Качество видео: HDRip [BDRip 1080p]
    Формат видео: AVI
    Видео: 640x352 (1.82:1), 23.976 fps, XviD build 73 ~967 kbps avg, 0.18 bit/pixel
    Аудио: 48 kHz, MPEG Layer 3, 2 ch, ~128.00 kbps avg
    Сэмпл: http://multi-up.com/1095666

    MediaInfo

    General
    Complete name : D:\Торренты\The Forest_Drek_Rutracker.org.avi
    Format : AVI
    Format/Info : Audio Video Interleave
    File size : 737 MiB
    Duration : 1h 33mn
    Overall bit rate : 1 104 Kbps
    Writing application : VirtualDubMod 1.5.10.2 (build 2540/release)
    Writing library : VirtualDubMod build 2540/release
    Video
    ID : 0
    Format : MPEG-4 Visual
    Format profile : Advanced Simple@L5
    Format settings, BVOP : 2
    Format settings, QPel : No
    Format settings, GMC : No warppoints
    Format settings, Matrix : Custom
    Codec ID : XVID
    Codec ID/Hint : XviD
    Duration : 1h 33mn
    Bit rate : 967 Kbps
    Width : 640 pixels
    Height : 352 pixels
    Display aspect ratio : 16:9
    Frame rate : 23.976 (24000/1001) fps
    Color space : YUV
    Chroma subsampling : 4:2:0
    Bit depth : 8 bits
    Scan type : Progressive
    Compression mode : Lossy
    Bits/(Pixel*Frame) : 0.179
    Stream size : 645 MiB (88%)
    Writing library : XviD 73
    Audio
    ID : 1
    Format : MPEG Audio
    Format version : Version 1
    Format profile : Layer 3
    Codec ID : 55
    Codec ID/Hint : MP3
    Duration : 1h 33mn
    Bit rate mode : Constant
    Bit rate : 128 Kbps
    Channel(s) : 2 channels
    Sampling rate : 48.0 KHz
    Compression mode : Lossy
    Stream size : 85.4 MiB (12%)
    Alignment : Aligned on interleaves
    Interleave, duration : 42 ms (1.00 video frame)
    Interleave, preload duratio : 504 ms
    Writing library : LAME3.99r
    Encoding settings : -m s -V 4 -q 2 -lowpass 17 -b 128
    Скриншоты

    Скачать .torrent

    Скачать торрент-файл бесплатно и на максимальной скорости!

    Как скачивать? · Что такое торрент? · Рейтинг и ограничения

    !ВНИМАНИЕ!
    Сайт не распространяет и не хранит электронные версии произведений, а занимается лишь лишь предоставлением доступа к создаваемому пользователями каталогу ссылок на торрент-файлы, которые содержат только списки хеш-сумм, убедительная просьба с жалобами обращаться напрямую к пользователю. Файлы для обмена на трекере предоставлены пользователями сайта, и администрация не несёт ответственности за их содержание. Просьба не заливать файлы, защищенные авторскими правами, а также файлы нелегального содержания!


    _________________
    [Профиль] [ЛС]
    Показать сообщения:    
    Ответить на тему

    Текущее время: Сегодня, в 22:31

    Часовой пояс: GMT + 2



    Вы не можете начинать темы
    Вы не можете отвечать на сообщения
    Вы не можете редактировать свои сообщения
    Вы не можете удалять свои сообщения
    Вы не можете голосовать в опросах
    Вы не можете прикреплять файлы к сообщениям
    Вы не можете скачивать файлы