BitTorrentTracker PerecTracker.org
BitTorrentTracker PerecTracker.org
    
Регистрация  ·  Вход
 
 · 
Забыли пароль?

  • В центре внимания / Spotlight (Том МакКарти / Tom McCarthy) [2015, США, Триллер, драма, биография, история, BDRip-AVC] MVO + Original + Sub (rus, eng)

    Ответить на тему
     
    Автор Сообщение

    Light

    Создавать темы 02-Апр-2016 19:48

           

    [Цитировать]

    В центре внимания / Spotlight
    «Break the story. Break the silence»
    -Страна: США
    Жанр: драма, биография, история
    Год выпуска: 2015
    Продолжительность: 02:09:08
    Перевод : Профессиональный (многоголосый закадровый)
    Оригинальная аудиодорожка: английский
    Cубтитры: русские (полные), английские (полные, SDH)
    Навигация по главам: есть
    Режиссёр: Том МакКарти / Tom McCarthy
    В ролях: Марк Руффало, Майкл Китон, Рэйчел МакАдамс, Лив Шрайбер, Джон Слэттери, Стэнли Туччи, Брайан Д’Арси Джеймс, Елена Стайтелер, Джин Аморозо, Даг Мюррэй, Шэрон МакФарлэйн, Джейми Шеридан, Нил Хафф, Билли Крадап, Роберт Б. Кеннеди, Дуан Мюррэй, Брайан Чемберлен, Майкл Сирил Крейтон, Пол Гилфойл, Майкл Кантримэн
    Описание: Основанная на реальных событиях история журналистского расследования одного из самых громких в истории США секс-скандалов. Корреспонденты бостонской газеты разоблачают случаи педофилии, в которых обвиняются представители Церкви…
    Oscar 2016: Лучший фильм, Лучший сценарий
    Качество видео: BDRip-AVC (исходник - Blu-ray|SPOTLIGHT_BLUEBIRD)
    Формат видео: MKV
    Видео: x264, 1008x544 (1.85:1), 23,976 fps, ~2275 kbps, 0.173 bit/pixel
    Аудио 1: 48 kHz, AC3 Dolby Digital, 3/2 (L,C,R,l,r) + LFE ch, ~448 kbps [русский]
    Аудио 2: 48 kHz, AC3 Dolby Digital, 3/2 (L,C,R,l,r) + LFE ch, ~448 kbps [английский]
    Формат субтитров: softsub (SRT)
    MediaInfo | x264 log
    Format : Matroska
    Format version : Version 4 / Version 2
    File size : 2.92 GiB
    Duration : 2h 9mn
    Overall bit rate : 3 236 Kbps
    Movie name : В центре внимания / Spotlight (2015) :: AFM ::
    Encoded date : UTC 2016-04-02 03:37:27
    Writing application : mkvmerge v8.3.0 ('Over the Horizon') 32bit
    Writing library : libebml v1.3.1 + libmatroska v1.4.2
    Video
    ID : 1
    Format : AVC
    Format/Info : Advanced Video Codec
    Format profile : High@L4.1
    Format settings, CABAC : Yes
    Format settings, ReFrames : 12 frames
    Codec ID : V_MPEG4/ISO/AVC
    Duration : 2h 9mn
    Bit rate : 2 275 Kbps
    Width : 1 008 pixels
    Height : 544 pixels
    Display aspect ratio : 1.85:1
    Frame rate mode : Constant
    Frame rate : 23.976 fps
    Color space : YUV
    Chroma subsampling : 4:2:0
    Bit depth : 8 bits
    Scan type : Progressive
    Bits/(Pixel*Frame) : 0.173
    Stream size : 2.05 GiB (70%)
    Title : BDRip by AFM [RuTracker.org]
    Writing library : x264 core 148 r2665+53 6629127 t_mod_Custom [8-bit@all X86_64]
    Encoding settings : cabac=1 / ref=12 / deblock=1:-2:-2 / analyse=0x3:0x113 / me=umh / subme=10 / psy=1 / fade_compensate=0.00 / psy_rd=0.95:0.03 / mixed_ref=1 / me_range=32 / chroma_me=1 / trellis=2 / 8x8dct=1 / cqm=0 / deadzone=21,11 / fast_pskip=0 / chroma_qp_offset=-3 / threads=6 / lookahead_threads=1 / sliced_threads=0 / nr=0 / decimate=1 / interlaced=0 / bluray_compat=0 / constrained_intra=0 / fgo=0 / bframes=15 / b_pyramid=2 / b_adapt=2 / b_bias=0 / direct=1 / weightb=1 / open_gop=0 / weightp=2 / keyint=250 / keyint_min=23 / scenecut=40 / intra_refresh=0 / rc_lookahead=90 / rc=crf / mbtree=1 / crf=17.7000 / qcomp=0.65 / qpmin=0:0:0 / qpmax=69:69:69 / qpstep=4 / vbv_maxrate=50000 / vbv_bufsize=62500 / crf_max=0.0 / nal_hrd=none / filler=0 / ip_ratio=1.25 / aq=1:0.80 / aq-sensitivity=10.00 / aq-factor=1.00:1.00:1.00 / aq2=0 / aq3=0 / zones=173430,185769,q=30
    Language : English
    Default : Yes
    Forced : No
    Audio #1
    ID : 2
    Format : AC-3
    Format/Info : Audio Coding 3
    Mode extension : CM (complete main)
    Format settings, Endianness : Big
    Codec ID : A_AC3
    Duration : 2h 9mn
    Bit rate mode : Constant
    Bit rate : 448 Kbps
    Channel(s) : 6 channels
    Channel positions : Front: L C R, Side: L R, LFE
    Sampling rate : 48.0 KHz
    Compression mode : Lossy
    Stream size : 414 MiB (14%)
    Title : MVO, AC3 5.1 ~448 kbps
    Language : Russian
    Default : Yes
    Forced : No
    Audio #2
    ID : 3
    Format : AC-3
    Format/Info : Audio Coding 3
    Mode extension : CM (complete main)
    Format settings, Endianness : Big
    Codec ID : A_AC3
    Duration : 2h 9mn
    Bit rate mode : Constant
    Bit rate : 448 Kbps
    Channel(s) : 6 channels
    Channel positions : Front: L C R, Side: L R, LFE
    Sampling rate : 48.0 KHz
    Compression mode : Lossy
    Stream size : 414 MiB (14%)
    Title : Original, AC3 5.1 ~448 kbps
    Language : English
    Default : No
    Forced : No
    Text #1
    ID : 4
    Format : UTF-8
    Codec ID : S_TEXT/UTF8
    Codec ID/Info : UTF-8 Plain Text
    Language : Russian
    Default : No
    Forced : No
    Text #2
    ID : 5
    Format : UTF-8
    Codec ID : S_TEXT/UTF8
    Codec ID/Info : UTF-8 Plain Text
    Language : English
    Default : No
    Forced : No
    Text #3
    ID : 6
    Format : UTF-8
    Codec ID : S_TEXT/UTF8
    Codec ID/Info : UTF-8 Plain Text
    Title : SDH
    Language : English
    Default : No
    Forced : No
    Menu
    00:00:00.000 : en:Chapter 1
    00:08:20.750 : en:Chapter 2
    00:14:30.536 : en:Chapter 3
    00:21:51.519 : en:Chapter 4
    00:27:38.907 : en:Chapter 5
    00:35:48.772 : en:Chapter 6
    00:45:38.986 : en:Chapter 7
    00:49:12.199 : en:Chapter 8
    00:53:21.156 : en:Chapter 9
    00:59:36.573 : en:Chapter 10
    01:05:29.217 : en:Chapter 11
    01:10:47.535 : en:Chapter 12
    01:17:30.688 : en:Chapter 13
    01:23:30.047 : en:Chapter 14
    01:30:03.148 : en:Chapter 15
    01:34:27.495 : en:Chapter 16
    01:42:52.541 : en:Chapter 17
    01:50:57.943 : en:Chapter 18
    01:55:50.110 : en:Chapter 19
    02:01:30.575 : en:Chapter 20

    x264

    x264 [info]: frame I:1337 Avg QP:16.14 size: 97460
    x264 [info]: frame P:33429 Avg QP:18.84 size: 28510
    x264 [info]: frame B:151003 Avg QP:21.29 size: 7815
    x264 [info]: consecutive B-frames: 1.1% 0.6% 2.8% 11.1% 12.5% 54.7% 7.3% 1.7% 2.0% 1.1% 1.3% 0.9% 0.8% 0.6% 0.5% 0.9%
    x264 [info]: mb I I16..4: 7.1% 69.2% 23.6%
    x264 [info]: mb P I16..4: 0.4% 5.1% 0.8% P16..4: 37.8% 27.0% 19.0% 0.0% 0.0% skip: 9.8%
    x264 [info]: mb B I16..4: 0.0% 0.8% 0.1% B16..8: 37.9% 9.2% 3.2% direct: 3.5% skip:45.3% L0:47.1% L1:43.6% BI: 9.4%
    x264 [info]: 8x8 transform intra:80.6% inter:58.7%
    x264 [info]: coded y,uvDC,uvAC intra: 92.5% 59.3% 37.6% inter: 21.6% 8.3% 1.5%
    x264 [info]: i16 v,h,dc,p: 42% 15% 8% 34%
    x264 [info]: i8 v,h,dc,ddl,ddr,vr,hd,vl,hu: 11% 9% 12% 9% 13% 12% 12% 10% 11%
    x264 [info]: i4 v,h,dc,ddl,ddr,vr,hd,vl,hu: 13% 12% 4% 9% 14% 13% 13% 11% 12%
    x264 [info]: i8c dc,h,v,p: 39% 29% 21% 11%
    x264 [info]: Weighted P-Frames: Y:97.3% UV:1.0%
    x264 [info]: ref P L0: 38.9% 9.2% 19.4% 7.2% 7.0% 4.2% 4.6% 2.0% 2.4% 1.6% 1.9% 1.5% 0.1% 0.0%
    x264 [info]: ref B L0: 61.1% 13.9% 7.9% 4.5% 3.4% 2.9% 2.3% 1.4% 1.5% 0.8% 0.3%
    x264 [info]: ref B L1: 89.8% 10.2%
    x264 [info]: kb/s:2337.04

    Скриншоты

    с названием

    ~~ Source ~~
    ~~ Rip ~~
    Скачать .torrent

    Скачать торрент-файл бесплатно и на максимальной скорости!

    Как скачивать? · Что такое торрент? · Рейтинг и ограничения

    !ВНИМАНИЕ!
    Сайт не распространяет и не хранит электронные версии произведений, а занимается лишь лишь предоставлением доступа к создаваемому пользователями каталогу ссылок на торрент-файлы, которые содержат только списки хеш-сумм, убедительная просьба с жалобами обращаться напрямую к пользователю. Файлы для обмена на трекере предоставлены пользователями сайта, и администрация не несёт ответственности за их содержание. Просьба не заливать файлы, защищенные авторскими правами, а также файлы нелегального содержания!


    _________________
    [Профиль] [ЛС]
    Показать сообщения:    
    Ответить на тему

    Текущее время: Сегодня, в 12:44

    Часовой пояс: GMT + 2



    Вы не можете начинать темы
    Вы не можете отвечать на сообщения
    Вы не можете редактировать свои сообщения
    Вы не можете удалять свои сообщения
    Вы не можете голосовать в опросах
    Вы не можете прикреплять файлы к сообщениям
    Вы не можете скачивать файлы