BitTorrentTracker PerecTracker.org
BitTorrentTracker PerecTracker.org
    
Регистрация  ·  Вход
 
 · 
Забыли пароль?

  • Чудо / Miraculum (Даниель Гру / Daniel Grou / PodZ) [2014, Канада, драма, DVB] Original (Fre) + Sub (Rus, Eng, Fre, Deu)

    Ответить на тему
     
    Автор Сообщение

    Light

    Создавать темы 02-Апр-2016 19:48

           

    [Цитировать]

    Чудо
    Miraculum-Страна: Канада
    Жанр: драма
    Год выпуска: 2014
    Продолжительность: 01:49:43
    Перевод: Субтитры (перевод И.Рыбкиной, Éclair Group)
    Cубтитры: русские, английские, французские, немецкие, нидерландские, румынские
    Оригинальная аудиодорожка: французский
    Режиссер: Даниель Гру / Daniel Grou / PodZВ ролях: Марилин Кастонгэ / Marilyn Castonguay (Julie), Ксавье Долан / Xavier Dolan (Etienne), Виолетт Шово / Violette Chauveau (Madeleine Simard), Робен Обер / Robin Aubert (Martin), Анн Дорваль / Anne Dorval (Evelyne), Жильбер Сикотт / Gilbert Sicotte (Mari de Louise)
    Описание: Жизнь неумолима, но мы продолжаем надеяться на чудо. Медсестра, принадлежащая к последователям Свидетелей Иеговы, верит в выздоровление единственного выжившего в автокатастрофе. Престарелая пара исследует запретные страсти. Двое других утоляют свое разочарование в выпивке и азартных играх. Однако, стоит взглянуть правде в глаза, как возникают сомнения в существовании Бога...
    Доп. информация: Hot Bird (13.0°E) TV5MONDE Europe DVB-S
    Номинация: на премию "Жютра" 2015 лучшему актеру второго плана (Robin Aubert ).

    Качество видео: DVB
    Формат видео: TS
    Видео: MPEG Video 2, 720x576@1024x576 (16:9), 25 fps, ~3211 kbps avg, 0.310 bit/pixel
    Аудио: MPEG Audio 2, 2 ch, 48 kHz, 192 kbps - французский
    Формат субтитров: PGS

    MediaInfo

    GeneralID : 1 (0x1)Complete name : [apreder]Miraculum(2014)DVB.tsFormat : MPEG-TSFile size : 2.75 GiBDuration : 1h 49mnOverall bit rate mode : VariableOverall bit rate : 3 582 KbpsMaximum Overall bit rate : 35.5 Mbps
    VideoID : 4113 (0x1011)Menu ID : 1 (0x1)Format : MPEG VideoFormat version : Version 2Format profile : Main@MainFormat settings, BVOP : YesFormat settings, Matrix : CustomFormat settings, GOP : VariableFormat settings, picture structure : FrameCodec ID : 2Duration : 1h 49mnBit rate mode : VariableBit rate : 3 211 KbpsWidth : 720 pixelsHeight : 576 pixelsDisplay aspect ratio : 16:9Frame rate : 25.000 fpsStandard : PALColor space : YUVChroma subsampling : 4:2:0Bit depth : 8 bitsScan type : InterlacedScan order : Top Field FirstCompression mode : LossyBits/(Pixel*Frame) : 0.310Time code of first frame : 00:00:00:00Time code source : Group of pictures headerGOP, Open/Closed : OpenGOP, Open/Closed of first frame : ClosedStream size : 2.46 GiB (90%)
    AudioID : 4352 (0x1100)Menu ID : 1 (0x1)Format : MPEG AudioFormat version : Version 1Format profile : Layer 2Codec ID : 4Duration : 1h 49mnBit rate mode : ConstantBit rate : 192 KbpsChannel(s) : 2 channelsSampling rate : 48.0 KHzCompression mode : LossyStream size : 151 MiB (5%)Language : French
    Text #1ID : 4608 (0x1200)Menu ID : 1 (0x1)Format : PGSCodec ID : 144Language : Russian
    Text #2ID : 4609 (0x1201)Menu ID : 1 (0x1)Format : PGSCodec ID : 144Language : English
    Text #3ID : 4610 (0x1202)Menu ID : 1 (0x1)Format : PGSCodec ID : 144Language : French
    Text #4ID : 4611 (0x1203)Menu ID : 1 (0x1)Format : PGSCodec ID : 144Language : German
    Text #5ID : 4612 (0x1204)Menu ID : 1 (0x1)Format : PGSCodec ID : 144Language : Dutch
    Text #6ID : 4613 (0x1205)Menu ID : 1 (0x1)Format : PGSCodec ID : 144Language : Romanian

    Скриншот c названием фильма

    Скриншоты

    Резервные скриншоты


    -[1'998]
    Скачать .torrent

    Скачать торрент-файл бесплатно и на максимальной скорости!

    Как скачивать? · Что такое торрент? · Рейтинг и ограничения

    !ВНИМАНИЕ!
    Сайт не распространяет и не хранит электронные версии произведений, а занимается лишь лишь предоставлением доступа к создаваемому пользователями каталогу ссылок на торрент-файлы, которые содержат только списки хеш-сумм, убедительная просьба с жалобами обращаться напрямую к пользователю. Файлы для обмена на трекере предоставлены пользователями сайта, и администрация не несёт ответственности за их содержание. Просьба не заливать файлы, защищенные авторскими правами, а также файлы нелегального содержания!


    _________________
    [Профиль] [ЛС]
    Показать сообщения:    
    Ответить на тему

    Текущее время: Сегодня, в 08:14

    Часовой пояс: GMT + 2



    Вы не можете начинать темы
    Вы не можете отвечать на сообщения
    Вы не можете редактировать свои сообщения
    Вы не можете удалять свои сообщения
    Вы не можете голосовать в опросах
    Вы не можете прикреплять файлы к сообщениям
    Вы не можете скачивать файлы