BitTorrentTracker PerecTracker.org
BitTorrentTracker PerecTracker.org
    
Регистрация  ·  Вход
 
 · 
Забыли пароль?

  • Путевка в жизнь (Олег Галин) [2014, Приключения, SATRip]

    Ответить на тему
     
    Автор Сообщение

    Flirldrerve

    Создавать темы 02-Апр-2016 19:48

           

    [Цитировать]

    Путевка в жизньЖанр: Приключения
    Год выпуска: 2014
    Продолжительность: 01:35:43
    Режиссёр: Олег Галин
    В ролях: Илья Плисов, Александр Лобанов, Сергей Гармаш, Клавдия Коршунова, Олег Алмазов, Дмитрий Ермак, Александра Шевченко, Ольга Баранова, Иван Косичкин
    Описание: Семья Ряхиных оформляет опекунство над детдомовцем Ромой Бегунковым. Однако радость мальчика оказывается преждевременной, ведь в новом доме его используют в качестве прислуги и бесплатной рабочей силы. Единственным верным другом для подростка оказывается щенок по кличке Плут. Однако и питомец страдает от жестоких хозяев. Рома не выдерживает и поздним дождливым вечером, прихватив Плута, сбегает из ненавистного дома. Мальчик по случайности попадает на полигон местной воинской части, где проходят учения. Там он получает травму, и Бегункова временно размещают в гарнизоне. С этого дня Рома вынужден придерживаться строгого армейского распорядка и беспрекословно выполнять задания. Там же он знакомится с дочерью командира Соломатина Светой. Эта встреча пробуждает незнакомые для него чувства. Впрочем, главное испытание для Ромы ещё впереди, ведь его приёмного отца вынудили похитить электронную мину из воинской части, которая приютила подростка...
    Сэмпл:
    Качество видео: SATRip
    Формат видео: AVI
    Видео: XviD, 1850 Кбит/с, 720x304
    Аудио: МР3, 2 ch, 128 Кбит/с

    MediaInfo

    Общее
    Полное имя : M:\МОИ ВИДЕО ЗАПИСИ DViX, AVi, MPG4\ФИЛЬМЫ AVI DViX\Путевка в жизнь.avi
    Формат : AVI
    Формат/Информация : Audio Video Interleave
    Размер файла : 1,29 Гбайт
    Продолжительность : 1 ч. 35 м.
    Общий поток : 1925 Кбит/сек
    Программа кодирования : VirtualDubMod 1.5.10.3 | www.virtualdub-fr.org || (build 2550/release)
    Библиотека кодирования : VirtualDub build 29808/release
    Видео
    Идентификатор : 0
    Формат : MPEG-4 Visual
    Профиль формата : Advanced Simple@L5
    Параметр BVOP формата : 3
    Параметр QPel формата : Нет
    Параметр GMC формата : Без точки перехода
    Параметр матрицы формата : Default (H.263)
    Идентификатор кодека : XVID
    Идентификатор кодека/Подсказка : XviD
    Продолжительность : 1 ч. 35 м.
    Битрейт : 1787 Кбит/сек
    Ширина : 720 пикселей
    Высота : 304 пикселя
    Соотношение сторон : 2,35:1
    Частота кадров : 25,000 кадров/сек
    Цветовое пространство : YUV
    Субдискретизация насыщенности : 4:2:0
    Битовая глубина : 8 бит
    Тип развёртки : Прогрессивная
    Метод сжатия : С потерями
    Бит/(Пиксели*Кадры) : 0.327
    Размер потока : 1,19 Гбайт (93%)
    Библиотека кодирования : XviD 1.2.1 (UTC 2008-12-04)
    Аудио
    Идентификатор : 1
    Формат : MPEG Audio
    Версия формата : Version 1
    Профиль формата : Layer 3
    Режим : Joint stereo
    Идентификатор кодека : 55
    Идентификатор кодека/Подсказка : MP3
    Продолжительность : 1 ч. 35 м.
    Вид битрейта : Постоянный
    Битрейт : 128 Кбит/сек
    Каналы : 2 канала
    Частота : 44,1 КГц
    Метод сжатия : С потерями
    Задержка видео : 13 мс.
    Размер потока : 87,6 Мбайт (7%)
    Выравнивание : Разделение по промежуткам
    Продолжительность промежутка : 40 мс. (1,00 видеокадр)
    Время предзагрузки промежутка : 500 мс.
    Библиотека кодирования : LAME3.99.5

    Скриншот c названием фильма

    Скриншоты





    Скачать .torrent

    Скачать торрент-файл бесплатно и на максимальной скорости!

    Как скачивать? · Что такое торрент? · Рейтинг и ограничения

    !ВНИМАНИЕ!
    Сайт не распространяет и не хранит электронные версии произведений, а занимается лишь лишь предоставлением доступа к создаваемому пользователями каталогу ссылок на торрент-файлы, которые содержат только списки хеш-сумм, убедительная просьба с жалобами обращаться напрямую к пользователю. Файлы для обмена на трекере предоставлены пользователями сайта, и администрация не несёт ответственности за их содержание. Просьба не заливать файлы, защищенные авторскими правами, а также файлы нелегального содержания!


    _________________
    [Профиль] [ЛС]
    Показать сообщения:    
    Ответить на тему

    Текущее время: Сегодня, в 07:56

    Часовой пояс: GMT + 2



    Вы не можете начинать темы
    Вы не можете отвечать на сообщения
    Вы не можете редактировать свои сообщения
    Вы не можете удалять свои сообщения
    Вы не можете голосовать в опросах
    Вы не можете прикреплять файлы к сообщениям
    Вы не можете скачивать файлы