BitTorrentTracker PerecTracker.org
BitTorrentTracker PerecTracker.org
    
Регистрация  ·  Вход
 
 · 
Забыли пароль?

  • [ATV3] Пятница (Евгений Шелякин ) [2016, Россия, Комедия, WEB-DL, HD (1080p)] Original

    Ответить на тему
     
    Автор Сообщение

    rechyn

    Создавать темы 02-Апр-2016 19:48

           

    [Цитировать]

    Пятница
    «Все ждем пятницу!»
    6.984 / 10 7.10 / 10
    -Год выпуска: 2016
    Страна: Россия
    Жанр: Комедия
    Продолжительность: 01:26:54
    Перевод: Не требуется
    Оригинальная аудиодорожка: Есть
    Cубтитры: Нет
    Режиссёр: Евгений Шелякин
    Сценарий: Евгений Шелякин, Ибрагим Магомедов, Саид Давдиев
    Продюсер: Рашид Сардаров, Бинке Анисимов, Ибрагим Магомедов
    Оператор: Андрей Дебабов
    Композитор: Анатолий Бурносов, Павел Есенин, Виталий Кудрин
    Художник: Эдуард Гизатуллин, Анастасия Егорова
    Монтаж: Даниэл Овруцкий, Мария Уимкен, Дмитрий Слобцов
    В ролях: Данила Козловский, Настасья Самбурская, Катерина Шпица, Павел Деревянко, Кирилл Плетнёв, Евгения Брик, Антон Шагин, Ян Цапник, Евгений Стычкин, Сергей Бурунов
    Сборы в России: $1 564 376
    Мировая премьера: 23 марта 2016
    Премьера (РФ): 26 февраля 2016, «Централ Партнершип»
    Описание: Что если азартный миллионер на одну ночь станет официантом, офисный лузер будет звездой самой яркой вечеринки, а двум «заклятым» друзьям придется искать кенгуру ночью в подмосковном лесу? У каждого своя пятница! Как она закончится для каждого, знает только утро субботы-Качество исходника: WEB-DL 1080p (NNMClub)
    Качество: WEB-DL
    Тип: HD (1080p)
    Контейнер: M4V
    Видео: H.264, 1918x802, 2.40:1, 4 524 Kbps, 24.000 fps
    Аудио 1: Русский/Оригинальная дорожка , AAC / 2.0 / 157 Kbps / 48.0 KHz
    Аудио 2: Русский/Оригинальная дорожка , AC-3 / 5.1 / 384 Kbps / 48.0 KHz
    -

    iTunes Meta Tags

    Sort Name: Пятница
    XID: Apple:vendor_id:2016-843821
    contentID: 1096123845
    Copyright: © 2016 Central Partneship
    Screenwriters: Евгений Шелякин, Ибрагим Магомедов, Саид Давдиев
    Producers: Рашид Сардаров, Бинке Анисимов, Ибрагим Магомедов
    Director: Евгений Шелякин
    Cast: Данила Козловский, Настасья Самбурская, Катерина Шпица, Павел Деревянко, Кирилл Плетнёв, Евгения Брик, Антон Шагин, Ян Цапник, Евгений Стычкин, Сергей Бурунов
    Studio: RSS Production
    Rating: 135
    Long Description: Что если азартный миллионер на одну ночь станет официантом, офисный лузер будет звездой самой яркой вечеринки, а двум "заклятым" друзьям придется искать кенгуру ночью в подмосковном лесу? У каждого своя пятница! Как она закончится для каждого, знает только утро субботы ;)
    Description: Что если азартный миллионер на одну ночь станет официантом, офисный лузер будет звездой самой яркой вечеринки, а двум "заклятым" друзьям придется искать кенгуру ночью в подмосковном лесу? У каждого своя пятница! Как она закончится для каждого, знает только утро субботы ;)
    Release Date: 2016-03-23T08:00:00Z
    Genre: Русское кино
    Artist: Евгений Шелякин
    Name: Пятница

    MediaInfo

    General
    Complete name : /Users/imac/HandBrake/Pyatnitsa.WEB-DL.1080p.m4v
    Format : MPEG-4
    Codec ID : M4V  (M4V /M4A /mp42/isom)
    File size : 3.08 GiB
    Duration : 1h 26mn
    Overall bit rate mode : Variable
    Overall bit rate : 5 074 Kbps
    Movie name : Пятница
    Performer : Евгений Шелякин
    Director : Евгений Шелякин
    Actor : Данила Козловский / Настасья Самбурская / Катерина Шпица / Павел Деревянко / Кирилл Плетнёв / Евгения Брик / Антон Шагин / Ян Цапник / Евгений Стычкин / Сергей Бурунов
    Screenplay by : Евгений Шелякин / Ибрагим Магомедов / Саид Давдиев
    Producer : Рашид Сардаров / Бинке Анисимов / Ибрагим Магомедов
    Production studio : RSS Production
    Genre : Русское кино
    ContentType : Short Film
    Description : Что если азартный миллионер на одну ночь станет официантом, офисный лузер будет звездой самой яркой вечеринки, а двум "заклятым" друзьям придется искать кенгуру ночью в подмосковном лесу? У каждого своя пятница! Как она закончится для каждого, знает только утро субботы ;)
    Recorded date : UTC 2016-03-23 08:00:00
    Encoded date : UTC 2016-04-02 11:50:33
    Tagged date : UTC 2016-04-02 11:51:25
    Copyright : © 2016 Central Partneship
    Cover : Yes
    Rating : None
    Title/Sort : Пятница
    LongDescription : Что если азартный миллионер на одну ночь станет официантом, офисный лузер будет звездой самой яркой вечеринки, а двум "заклятым" друзьям придется искать кенгуру ночью в подмосковном лесу? У каждого своя пятница! Как она закончится для каждого, знает только утро субботы ;)
    AppleStoreCatalogID : 1096123845
    Vendor : Apple:vendor_id:2016-843821
    ContentRating : ru-movie|16+|375|
    Video #1
    ID : 1
    Format : AVC
    Format/Info : Advanced Video Codec
    Format profile : High@L4
    Format settings, CABAC : Yes
    Format settings, ReFrames : 5 frames
    Codec ID : avc1
    Codec ID/Info : Advanced Video Coding
    Duration : 1h 26mn
    Bit rate : 4 524 Kbps
    Width : 1 918 pixels
    Height : 802 pixels
    Display aspect ratio : 2.40:1
    Frame rate mode : Variable
    Frame rate : 24.000 fps
    Minimum frame rate : 23.810 fps
    Maximum frame rate : 24.390 fps
    Color space : YUV
    Chroma subsampling : 4:2:0
    Bit depth : 8 bits
    Scan type : Progressive
    Bits/(Pixel*Frame) : 0.123
    Stream size : 2.75 GiB (89%)
    Title : Main Program
    Language : Russian
    Encoded date : UTC 2016-04-02 11:50:33
    Tagged date : UTC 2016-04-02 11:50:38
    Color range : Limited
    Color primaries : BT.709
    Transfer characteristics : BT.709
    Matrix coefficients : BT.709
    Menus : 4,5
    Video #2
    ID : 5
    Format : JPEG
    Codec ID : jpeg
    Duration : 1h 26mn
    Bit rate mode : Variable
    Bit rate : 1 026 bps
    Width : 640 pixels
    Height : 267 pixels
    Display aspect ratio : 2.40:1
    Frame rate mode : Variable
    Frame rate : 0.003 fps
    Minimum frame rate : 0.002 fps
    Maximum frame rate : 0.003 fps
    Color space : YUV
    Chroma subsampling : 4:2:0
    Bit depth : 8 bits
    Compression mode : Lossy
    Bits/(Pixel*Frame) : 2.001
    Stream size : 626 KiB (0%)
    Title : Chapter Images
    Language : Russian
    Default : No
    Encoded date : UTC 2016-04-02 11:50:44
    Tagged date : UTC 2016-04-02 11:50:45
    Menu For : 1
    Audio #1
    ID : 2
    Format : AAC
    Format/Info : Advanced Audio Codec
    Format profile : LC
    Codec ID : 40
    Duration : 1h 26mn
    Bit rate mode : Variable
    Bit rate : 157 Kbps
    Maximum bit rate : 238 Kbps
    Channel(s) : 2 channels
    Channel positions : Front: L R
    Sampling rate : 48.0 KHz
    Frame rate : 46.875 fps (1024 spf)
    Compression mode : Lossy
    Stream size : 97.8 MiB (3%)
    Title : Russian Stereo
    Language : Russian
    Default : Yes
    Alternate group : 1
    Encoded date : UTC 2016-04-02 11:50:33
    Tagged date : UTC 2016-04-02 11:50:39
    Fallback From : 3
    Audio #2
    ID : 3
    Format : AC-3
    Format/Info : Audio Coding 3
    Mode extension : CM (complete main)
    Format settings, Endianness : Big
    Codec ID : ac-3
    Duration : 1h 26mn
    Bit rate mode : Constant
    Bit rate : 384 Kbps
    Channel(s) : 6 channels
    Channel positions : Front: L C R, Side: L R, LFE
    Sampling rate : 48.0 KHz
    Frame rate : 31.250 fps (1536 spf)
    Bit depth : 16 bits
    Compression mode : Lossy
    Stream size : 239 MiB (8%)
    Title : Russian DD 5.1
    Language : Russian
    Default : Inherited From: 2
    Alternate group : 1
    Encoded date : UTC 2016-04-02 11:50:33
    Tagged date : UTC 2016-04-02 11:50:38
    Fallback To : 2
    Menu #1
    00:00:00.000 : Глава 1
    00:05:09.000 : Глава 2
    00:10:17.541 : Глава 3
    00:15:26.291 : Глава 4
    00:21:16.832 : Глава 5
    00:27:04.165 : Глава 6
    00:32:19.956 : Глава 7
    00:37:51.789 : Глава 8
    00:43:00.122 : Глава 9
    00:48:50.122 : Глава 10
    00:54:06.622 : Глава 11
    00:59:43.372 : Глава 12
    01:05:15.580 : Глава 13
    01:10:28.996 : Глава 14
    01:16:43.079 : Глава 15
    Menu #2
    ID : 4
    Codec ID : text
    Duration : 1h 26mn
    Language : Russian
    Encoded date : UTC 2016-04-02 11:50:39
    Tagged date : UTC 2016-04-02 11:50:39
    Menu For : 1
    00:00:00.000 : Глава 1
    00:05:09.000 : Глава 2
    00:10:17.541 : Глава 3
    00:15:26.291 : Глава 4
    00:21:16.832 : Глава 5
    00:27:04.165 : Глава 6
    00:32:19.956 : Глава 7
    00:37:51.789 : Глава 8
    00:43:00.122 : Глава 9
    00:48:50.122 : Глава 10
    00:54:06.622 : Глава 11
    00:59:43.372 : Глава 12
    01:05:15.580 : Глава 13
    01:10:28.996 : Глава 14
    01:16:43.079 : Глава 15
    Bit rate mode : VBR

    Скриншоты

    -

    Релиз подготовлен для просмотра на Apple TV, iPad, iPhone, iPod Touch.
    Для просмотра данного релиза на компьютере с ОС Windows рекомендуется использовать VLC media player
    Скачать .torrent

    Скачать торрент-файл бесплатно и на максимальной скорости!

    Как скачивать? · Что такое торрент? · Рейтинг и ограничения

    !ВНИМАНИЕ!
    Сайт не распространяет и не хранит электронные версии произведений, а занимается лишь лишь предоставлением доступа к создаваемому пользователями каталогу ссылок на торрент-файлы, которые содержат только списки хеш-сумм, убедительная просьба с жалобами обращаться напрямую к пользователю. Файлы для обмена на трекере предоставлены пользователями сайта, и администрация не несёт ответственности за их содержание. Просьба не заливать файлы, защищенные авторскими правами, а также файлы нелегального содержания!


    _________________
    [Профиль] [ЛС]
    Показать сообщения:    
    Ответить на тему

    Текущее время: Сегодня, в 10:03

    Часовой пояс: GMT + 2



    Вы не можете начинать темы
    Вы не можете отвечать на сообщения
    Вы не можете редактировать свои сообщения
    Вы не можете удалять свои сообщения
    Вы не можете голосовать в опросах
    Вы не можете прикреплять файлы к сообщениям
    Вы не можете скачивать файлы