BitTorrentTracker PerecTracker.org
BitTorrentTracker PerecTracker.org
    
Регистрация  ·  Вход
 
 · 
Забыли пароль?

  • Второй шанс / Second Chance / Сезон: 1 / Серии: 1-11 из 11 (Майкл Куэста, Сара Пиа Андерсон, Адам Кэйн) [2016, фантастика, боевик, WEB-DLRip] MVO (NewStudio) + Original

    Ответить на тему
     
    Автор Сообщение

    rechyn

    Создавать темы 02-Апр-2016 19:21

           

    [Цитировать]

    Второй шансSecond Chance-Год выпуска: 2016
    Страна: США
    Жанр: Фантастика, боевик
    Продолжительность: 00:45:00-Перевод: Профессиональный (многоголосый закадровый) NewStudio
    Режиссёр: Майкл Куэста, Сара Пиа Андерсон, Адам Кэйн
    В ролях: Роберт Казински, Адхир Кальян, Тим ДиКей, Дилшад Вадсариа, Филип Бейкер Холл, Сиэра Браво, Хезер Д. Бенуа и др.-Описание: Нелепо под конец жизни сложилась судьба Джимми Притчарда, бывшего шерифа округа Кинг, Вашингтон. Ему семьдесят пять. Всю жизнь много пил и ухлёстывал за всеми доступными бабёнками, а пятнадцать лет назад его уличили в коррупции и заставили уйти в отставку «по собственному желанию». Иначе скандал получился бы знатный. Опозоренный, опустошённый Притчард доживает свои дни в доме сына Дюваля. И должен благодарить его за гостеприимство. Потому что всегда ставил работу и развлечения перед нуждами семьи, бывал дома редко и в жизни трёх сыновей участия не принимал.
    Дюваль Притчард служит в должности агента ФБР. Однажды, страдающий бессонницей старик спускается вниз и застаёт в доме грабителя, который роется в бумагах Дюваля. Недолго думая, бандит навёл пистолет на случайного свидетеля и убил его. Итак, Джимми Притчард мёртв как бревно. Но, как выяснилось – не навсегда. На кладбище унесли пустой гроб, а тело мертвеца попало в руки миллиардеров и технологических гениев, брата и сестры Мэри и Отто Гудвин. Продолжив смотреть сериал «Второй шанс» онлайн в хорошем качестве можно увидеть, что Джимми воскресает как молодая версия себя самого. Теперь у него есть физические способности, о каких он никогда не мечтал и возможность отомстить своему убийце. Каким образом бывший шериф использует свою вторую жизнь?-Доп. информация: Без рекламных ВидеоАудио вставок-Альтернативные раздачи
    Сэмпл-Качество: WEB-DLRip
    Формат: AVI
    Видео: XviD, 720x400 (16:9), 23,976 fps, ~1500 kbps
    Аудио: Rus. MP3, 48 kHz, 2 ch, 128 kbps
    Аудио: Eng. MP3, 48 kHz, 2 ch, 128 kbps
    Субтитры: отсутствуют

    Список серий

    01. Подходящий донор A Suitable Donor
    02. Еще одна метка One More Notch
    03. Из тьмы к свету From Darkness, The Sun
    04. Допуск Admissions
    05. Scratch That Glitch
    06. Палимпсест Palimpsest
    07. Тот раз в машине That Time In the Car
    08. Забыть дружбу прежних дней May Old Acquaintance Be Forgot
    09. Когда Вы Должны Пойти Туда, Они Должны Принять Вас When You Have to Go There, They Have to Take You In
    10. Забота Geworfenheit
    11. Безмятежность Gelassenheit

    MediaInfo

    Полное имя                               : Second Chance.S01.WEB-DLRip.RusEng.NewStudio\Second Chance.S01E01.WEB-DLRip.RusEng.NewStudio.L.avi
    Формат                                   : AVI
    Формат/Информация                        : Audio Video Interleave
    Размер файла                             : 581 Мбайт
    Продолжительность                        : 45 м.
    Общий поток                              : 1788 Кбит/сек
    Программа кодирования                    : VirtualDubMod 1.5.10.3 (build 2550/release)
    Библиотека кодирования                   : VirtualDubMod build 2550/release
    Видео
    Идентификатор                            : 0
    Формат                                   : MPEG-4 Visual
    Профиль формата                          : Advanced Simple@L5
    Параметр BVOP формата                    : 1
    Параметр QPel формата                    : Нет
    Параметр GMC формата                     : Без точки перехода
    Параметр матрицы формата                 : Default (H.263)
    Идентификатор кодека                     : XVID
    Идентификатор кодека/Подсказка           : XviD
    Продолжительность                        : 45 м.
    Битрейт                                  : 1518 Кбит/сек
    Ширина                                   : 720 пикселей
    Высота                                   : 400 пикселей
    Соотношение сторон                       : 16:9
    Частота кадров                           : 23,976 кадра/сек
    Цветовое пространство                    : YUV
    Субдискретизация насыщенности            : 4:2:0
    Битовая глубина                          : 8 бит
    Тип развёртки                            : Прогрессивная
    Метод сжатия                             : С потерями
    Бит/(Пиксели*Кадры)                      : 0.220
    Размер потока                            : 493 Мбайт (85%)
    Библиотека кодирования                   : XviD 73
    Аудио #1
    Идентификатор                            : 1
    Формат                                   : MPEG Audio
    Версия формата                           : Version 1
    Профиль формата                          : Layer 3
    Режим                                    : Joint stereo
    Расширение режима                        : MS Stereo
    Идентификатор кодека                     : 55
    Идентификатор кодека/Подсказка           : MP3
    Продолжительность                        : 45 м.
    Вид битрейта                             : Постоянный
    Битрейт                                  : 128 Кбит/сек
    Каналы                                   : 2 канала
    Частота                                  : 48,0 КГц
    Метод сжатия                             : С потерями
    Размер потока                            : 41,6 Мбайт (7%)
    Выравнивание                             : Соединение по промежуткам
    Продолжительность промежутка             : 42  мс. (1,00 видеокадр)
    Время предзагрузки промежутка            : 504  мс.
    Аудио #2
    Идентификатор                            : 2
    Формат                                   : MPEG Audio
    Версия формата                           : Version 1
    Профиль формата                          : Layer 3
    Режим                                    : Joint stereo
    Расширение режима                        : MS Stereo
    Идентификатор кодека                     : 55
    Идентификатор кодека/Подсказка           : MP3
    Продолжительность                        : 45 м.
    Вид битрейта                             : Постоянный
    Битрейт                                  : 128 Кбит/сек
    Каналы                                   : 2 канала
    Частота                                  : 48,0 КГц
    Метод сжатия                             : С потерями
    Размер потока                            : 41,6 Мбайт (7%)
    Выравнивание                             : Соединение по промежуткам
    Продолжительность промежутка             : 42  мс. (1,00 видеокадр)
    Время предзагрузки промежутка            : 504  мс.

    Скриншоты

    Скачать .torrent

    Скачать торрент-файл бесплатно и на максимальной скорости!

    Как скачивать? · Что такое торрент? · Рейтинг и ограничения

    !ВНИМАНИЕ!
    Сайт не распространяет и не хранит электронные версии произведений, а занимается лишь лишь предоставлением доступа к создаваемому пользователями каталогу ссылок на торрент-файлы, которые содержат только списки хеш-сумм, убедительная просьба с жалобами обращаться напрямую к пользователю. Файлы для обмена на трекере предоставлены пользователями сайта, и администрация не несёт ответственности за их содержание. Просьба не заливать файлы, защищенные авторскими правами, а также файлы нелегального содержания!


    _________________
    [Профиль] [ЛС]
    Показать сообщения:    
    Ответить на тему

    Текущее время: Сегодня, в 06:12

    Часовой пояс: GMT + 2



    Вы не можете начинать темы
    Вы не можете отвечать на сообщения
    Вы не можете редактировать свои сообщения
    Вы не можете удалять свои сообщения
    Вы не можете голосовать в опросах
    Вы не можете прикреплять файлы к сообщениям
    Вы не можете скачивать файлы