BitTorrentTracker PerecTracker.org
BitTorrentTracker PerecTracker.org
    
Регистрация  ·  Вход
 
 · 
Забыли пароль?

  • Элвин и бурундуки: Грандиозное бурундуключение / Alvin and the Chipmunks: The Road Chip (2015) BDRip | D | Лицензия

    Ответить на тему
     
    Автор Сообщение

    BOSS

    Создавать темы 02-Апр-2016 10:02

           

    [Цитировать]

    Информация о фильме
    Название: Элвин и бурундуки: Грандиозное бурундуключение
    Оригинальное название: Alvin and the Chipmunks: The Road Chip
    Год выхода: 2015
    Жанр: Мультфильм, фэнтези, комедия, приключения, семейный, музыка
    Режиссер: Уолт Бекер
    В ролях: Джейсон Ли, Джастин Лонг, Мэттью Грей Гублер, Джесси МакКартни, Кимберли Уильямс, Джош Грин, Тони Хейл, Белла Торн, Эдди Стиплз, Кристина Эпплгейт
    О фильме:
    Бурундуки пойдут на всё, чтобы сохранить свою семью, даже на грандиозное бурундуключение по всей Америке!
    Когда Бурундуки видят, что Дэйв берет с собой коробочку с кольцом в поездку в Майами, они отчаянно пытаются помешать ему сделать предложение его девушке — из опасения, что мачеха и сводный брат внесут перемены в их семейную идиллию. Но после того, как их помещают в черный список за хулиганское поведение в самолете, Элвин, Саймон, Теодор и их будущий брат Майлз отправляются в самое важное путешествие в их жизни через всю страну, чтобы успеть помешать помолвке.

    Страна: США
    Студия: Bagdasarian Productions, Fox 2000 Pictures, Regency Enterprises, Sunswept Entertainment, TSG Entertainment
    Продолжительность: 01:32:00
    Перевод: Профессиональный (полное дублирование)[BD EUR]
    Файл
    Качество: BDRip (исх. Alvin and the Chipmunks: The Road Chip (2015) Blu-ray Disc [EUR] DTS 5.1)
    Кодек: XviD
    Видео: 720x384 (1,85:1), 23,976 fps, Xvid ~1815 kbps avg, 0.274 bit/pixel
    Звук: 48 kHz, AC3, 6 ch, ~448.00 kbps avg | русский | Профессиональный (полное дублирование)[BD EUR]
    Субтитры: Отсутствуют
    Семпл

    Инфо-файл

    Общее
    Полное имя : Alvin and the Chipmunks The Road Chip.2015.D.BDRip.avi
    Формат : AVI
    Формат/Информация : Audio Video Interleave
    Размер файла : 1,46 Гбайт
    Продолжительность : 1 ч. 32 м.
    Общий поток : 2273 Кбит/сек
    Программа кодирования : VirtualDubMod 1.5.10.3 (build 2550/release)
    Библиотека кодирования : VirtualDubMod build 2550/release
    Видео
    Идентификатор : 0
    Формат : MPEG-4 Visual
    Профиль формата : Advanced Simple@L5
    Параметр BVOP формата : 2
    Параметр QPel формата : Нет
    Параметр GMC формата : Без точки перехода
    Параметр матрицы формата : Default (MPEG)
    Идентификатор кодека : XVID
    Идентификатор кодека/Подсказка : XviD
    Продолжительность : 1 ч. 32 м.
    Битрейт : 1815 Кбит/сек
    Ширина : 720 пикселей
    Высота : 384 пикселя
    Соотношение сторон : 1,85:1
    Частота кадров : 23,976 (24000/1001) кадра/сек
    Цветовое пространство : YUV
    Субдискретизация насыщенности : 4:2:0
    Битовая глубина : 8 бит
    Тип развёртки : Прогрессивная
    Метод сжатия : С потерями
    Бит/(Пиксели*Кадры) : 0.274
    Размер потока : 1,17 Гбайт (80%)
    Библиотека кодирования : XviD 73
    Аудио
    Идентификатор : 1
    Формат : AC-3
    Формат/Информация : Audio Coding 3
    Расширение режима : CM (complete main)
    Параметр Endianness формата : Big
    Идентификатор кодека : 2000
    Продолжительность : 1 ч. 32 м.
    Вид битрейта : Постоянный
    Битрейт : 448 Кбит/сек
    Каналы : 6 каналов
    Расположение каналов : Front: L C R, Side: L R, LFE
    Частота : 48,0 КГц
    Частота кадров : 31,250 кадров/сек (1536 spf)
    Метод сжатия : С потерями
    Размер потока : 295 Мбайт (20%)
    Выравнивание : Разделение по промежуткам
    Продолжительность промежутка : 42 мс. (1,00 видеокадр)
    Время предзагрузки промежутка : 500 мс.

    Скриншоты



    Скачать .torrent

    Скачать торрент-файл бесплатно и на максимальной скорости!

    Как скачивать? · Что такое торрент? · Рейтинг и ограничения

    !ВНИМАНИЕ!
    Сайт не распространяет и не хранит электронные версии произведений, а занимается лишь лишь предоставлением доступа к создаваемому пользователями каталогу ссылок на торрент-файлы, которые содержат только списки хеш-сумм, убедительная просьба с жалобами обращаться напрямую к пользователю. Файлы для обмена на трекере предоставлены пользователями сайта, и администрация не несёт ответственности за их содержание. Просьба не заливать файлы, защищенные авторскими правами, а также файлы нелегального содержания!

    [Профиль] [ЛС]
    Показать сообщения:    
    Ответить на тему

    Текущее время: Сегодня, в 03:27

    Часовой пояс: GMT + 2



    Вы не можете начинать темы
    Вы не можете отвечать на сообщения
    Вы не можете редактировать свои сообщения
    Вы не можете удалять свои сообщения
    Вы не можете голосовать в опросах
    Вы не можете прикреплять файлы к сообщениям
    Вы не можете скачивать файлы