BitTorrentTracker PerecTracker.org
BitTorrentTracker PerecTracker.org
    
Регистрация  ·  Вход
 
 · 
Забыли пароль?

  • Чемпионы: Быстрее. Выше. Сильнее (Артем Аксененко) [2016, Спорт, драма, BDRip]

    Ответить на тему
     
    Автор Сообщение

    Flirldrerve

    Создавать темы 01-Апр-2016 19:11

           

    [Цитировать]

    Чемпионы: Быстрее. Выше. Сильнее-Год выпуска: 2016
    Выпущено: Россия / Enjoy Movies
    Жанр: спорт, драма
    Продолжительность: 01:41:31-Режиссёр:
    Артем Аксененко-В ролях:
    Сергей Бондарчук, Евгений Пронин, Кристина Асмус, Егор Корешков, Александр Робак, Дарья Екамасова, Сергей Сосновский, Виктор Хориняк, Джемал Тетруашвили, Кристина Шаповалова-Описание:
    В мире их называли «Асфальтоукладчик», «Королева брусьев» и «Русская торпеда». Борец Александр Карелин, гимнастка Светлана Хоркина и пловец Александр Попов — реальные истории трех легендарных российских спортсменов, на общем счету которых 9 золотых олимпийских медалей и больше тысячи побед! У каждого был свой путь, своя уникальная драматическая история восхождения. Три яркие новеллы, основанные на реальных событиях, расскажут о том, что осталось за кадром спортивной хроники и каким был путь к высшему спортивному достижению — Олимпийский чемпион. Они стали легендами мирового спорта и дали возможность всей стране сказать «Мы победили!».-Релиз групп
    | | КиноПоиск | Сэмпл |-Качество: BDRip [Blu-ray Disc | 1080p | BLUEBIRD]
    Формат: AVI
    Видео: 720x304 (2.37:1), 24.000 fps, XviD build 67 ~1654 kbps avg, 0.32 bit/pixel
    Аудио: 48 kHz, AC3 Dolby Digital, 3/2 (L,C,R,l,r) + LFE ch, ~384.00 kbps avg-

    Скриншоты

    -

    MediaInfo

    Общее
    Полное имя                               : D:\Chempiony_Bystree_Vyshe_Silnee_2016_BDRip_by_Dalemake.avi
    Формат                                   : AVI
    Формат/Информация                        : Audio Video Interleave
    Размер файла                             : 1,45 Гбайт
    Продолжительность                        : 1 ч. 41 м.
    Общий поток                              : 2048 Кбит/сек
    Программа кодирования                    : VirtualDubMod 1.5.10.3 | www.virtualdub-fr.org || (build 2550/release)
    Библиотека кодирования                   : VirtualDubMod build 2550/release
    Видео
    Идентификатор                            : 0
    Формат                                   : MPEG-4 Visual
    Профиль формата                          : Advanced Simple@L5
    Параметр BVOP формата                    : 1
    Параметр QPel формата                    : Нет
    Параметр GMC формата                     : Без точки перехода
    Параметр матрицы формата                 : Выборочная
    Идентификатор кодека                     : XVID
    Идентификатор кодека/Подсказка           : XviD
    Продолжительность                        : 1 ч. 41 м.
    Битрейт                                  : 1654 Кбит/сек
    Ширина                                   : 720 пикселей
    Высота                                   : 304 пикселя
    Соотношение сторон                       : 2,35:1
    Частота кадров                           : 24,000 кадра/сек
    Цветовое пространство                    : YUV
    Субдискретизация насыщенности            : 4:2:0
    Битовая глубина                          : 8 бит
    Тип развёртки                            : Прогрессивная
    Метод сжатия                             : С потерями
    Бит/(Пиксели*Кадры)                      : 0.315
    Размер потока                            : 1,17 Гбайт (81%)
    Библиотека кодирования                   : XviD 67
    Аудио
    Идентификатор                            : 1
    Формат                                   : AC-3
    Формат/Информация                        : Audio Coding 3
    Расширение режима                        : CM (complete main)
    Параметр Endianness формата              : Big
    Идентификатор кодека                     : 2000
    Продолжительность                        : 1 ч. 41 м.
    Вид битрейта                             : Постоянный
    Битрейт                                  : 384 Кбит/сек
    Каналы                                   : 6 каналов
    Расположение каналов                     : Front: L C R, Side: L R, LFE
    Частота                                  : 48,0 КГц
    Битовая глубина                          : 16 бит
    Метод сжатия                             : С потерями
    Размер потока                            : 279 Мбайт (19%)
    Выравнивание                             : Разделение по промежуткам
    Продолжительность промежутка             : 42  мс. (1,00 видеокадр)
    Время предзагрузки промежутка            : 500  мс.
    -
    Скачать .torrent

    Скачать торрент-файл бесплатно и на максимальной скорости!

    Как скачивать? · Что такое торрент? · Рейтинг и ограничения

    !ВНИМАНИЕ!
    Сайт не распространяет и не хранит электронные версии произведений, а занимается лишь лишь предоставлением доступа к создаваемому пользователями каталогу ссылок на торрент-файлы, которые содержат только списки хеш-сумм, убедительная просьба с жалобами обращаться напрямую к пользователю. Файлы для обмена на трекере предоставлены пользователями сайта, и администрация не несёт ответственности за их содержание. Просьба не заливать файлы, защищенные авторскими правами, а также файлы нелегального содержания!


    _________________
    [Профиль] [ЛС]
    Показать сообщения:    
    Ответить на тему

    Текущее время: Сегодня, в 14:06

    Часовой пояс: GMT + 2



    Вы не можете начинать темы
    Вы не можете отвечать на сообщения
    Вы не можете редактировать свои сообщения
    Вы не можете удалять свои сообщения
    Вы не можете голосовать в опросах
    Вы не можете прикреплять файлы к сообщениям
    Вы не можете скачивать файлы