BitTorrentTracker PerecTracker.org
BitTorrentTracker PerecTracker.org
    
Регистрация  ·  Вход
 
 · 
Забыли пароль?

  • (Neo-Prog) [CD] Hangover Paradise - Mirrors - 2013, FLAC (image+.cue), lossless

    Ответить на тему
     
    Автор Сообщение

    Columb

    Создавать темы 19-Янв-2014 11:55

           

    [Цитировать]

    Hangover Paradise / Mirrors-Жанр: Neo-Prog
    Носитель: CD
    Год издания: 2013
    Издатель (лейбл): AYL records
    Номер по каталогу: AYL 0010
    Страна: Netherlands
    Аудиокодек: FLAC (*.flac)
    Тип рипа: image+.cue
    Битрейт аудио: lossless
    Продолжительность: 56:08
    Источник (релизер): свой рип
    Наличие сканов в содержимом раздачи: да
    Треклист:
    1. I Rest My Case - 8:40
    2. Out in the Streets - 8:22
    3. Back Home - 4:48
    4. Take Away - 5:10
    5. Army of Innocents (feat. Bert Heerink) - 9:04
    6. Religious Minds - 6:40
    7. Coming Home - 4:26
    8. Hangover Paradise - 8:54.-|| Coming Home || Back Home || hangoverparadise || progarchives || rateyourmusic ||-

    Лог создания рипа

    Exact Audio Copy V1.0 beta 1 from 15. November 2010
    EAC extraction logfile from 18. January 2014, 9:33
    Hangover Paradise / Mirrors
    Used drive : SlimtypeDVD A DS8A4S Adapter: 1 ID: 0
    Read mode : SecureUtilize accurate stream : YesDefeat audio cache : YesMake use of C2 pointers : No
    Read offset correction : 6Overread into Lead-In and Lead-Out : NoFill up missing offset samples with silence : YesDelete leading and trailing silent blocks : NoNull samples used in CRC calculations : YesUsed interface : Installed external ASPI interface
    Used output format : Internal WAV RoutinesSample format : 44.100 Hz; 16 Bit; Stereo
    TOC of the extracted CD
    Track | Start | Length | Start sector | End sector --------------------------------------------------------- 1 | 0:00.00 | 8:40.01 | 0 | 39000 2 | 8:40.01 | 8:22.67 | 39001 | 76717 3 | 17:02.68 | 4:48.08 | 76718 | 98325 4 | 21:51.01 | 5:10.63 | 98326 | 121638 5 | 27:01.64 | 9:04.64 | 121639 | 162502 6 | 36:06.53 | 6:40.20 | 162503 | 192522 7 | 42:46.73 | 4:26.56 | 192523 | 212528 8 | 47:13.54 | 8:54.44 | 212529 | 252622
    Range status and errors
    Selected range
    Filename D:\bzp01\Hangover Paradise - Mirrors (2013) [FLAC]\Hangover Paradise - Mirrors.wav
    Peak level 100.0 % Extraction speed 0.6 X Range quality 100.0 % Test CRC D4852FAE Copy CRC D4852FAE Copy OK
    No errors occurred
    AccurateRip summary
    Track 1 not present in databaseTrack 2 not present in databaseTrack 3 not present in databaseTrack 4 not present in databaseTrack 5 not present in databaseTrack 6 not present in databaseTrack 7 not present in databaseTrack 8 not present in database
    None of the tracks are present in the AccurateRip database
    End of status report
    ==== Log checksum E9E3B75BED590FDDF7F314AFB66FC88A20961146785400CD834F628FDEFA477D ====

    Содержание индексной карты (.CUE)

    REM GENRE "Progressive Rock"REM DATE 2013REM DISCID 5E0D2808REM COMMENT "ExactAudioCopy v1.0b1"PERFORMER "Hangover Paradise"TITLE "Mirrors"FILE "Hangover Paradise - Mirrors.flac" WAVE TRACK 01 AUDIO TITLE "I Rest My Case" PERFORMER "Hangover Paradise" INDEX 01 00:00:00 TRACK 02 AUDIO TITLE "Out in the Streets" PERFORMER "Hangover Paradise" INDEX 01 08:40:01 TRACK 03 AUDIO TITLE "Back Home" PERFORMER "Hangover Paradise" INDEX 00 17:01:68 INDEX 01 17:02:68 TRACK 04 AUDIO TITLE "Take Away" PERFORMER "Hangover Paradise" INDEX 00 21:49:01 INDEX 01 21:51:01 TRACK 05 AUDIO TITLE "Army of Innocents" PERFORMER "Hangover Paradise" INDEX 00 27:01:28 INDEX 01 27:01:64 TRACK 06 AUDIO TITLE "Religious Minds" PERFORMER "Hangover Paradise" INDEX 00 36:06:52 INDEX 01 36:06:53 TRACK 07 AUDIO TITLE "Coming Home" PERFORMER "Hangover Paradise" INDEX 00 42:44:73 INDEX 01 42:46:73 TRACK 08 AUDIO TITLE "Hangover Paradise" PERFORMER "Hangover Paradise" INDEX 00 47:11:54 INDEX 01 47:13:54

    Лог проверки качества

    -----------------------
    DON'T MODIFY THIS FILE
    -----------------------
    PERFORMER: auCDtect Task Manager, ver. 1.5.1RC4 build 1.5.1.5Copyright (c) 2008-2010 y-soft. All rights reservedhttp://y-soft.org
    ANALYZER: auCDtect: CD records authenticity detector, version 0.8.2Copyright (c) 2004 Oleg Berngardt. All rights reserved.Copyright (c) 2004 Alexander Djourik. All rights reserved.
    FILE: Hangover Paradise - Mirrors.flac Size: 417712458 Hash: 10E5C334A264E035CCCB0A66FBC93F16 Accuracy: -m0 Conclusion: CDDA 100% Signature: B2E2B29ED1EBB00CC673BC2EBDEEE292FD648916

    Скриншот спектра частот

    Об исполнителе (группе)

    Hangover Paradise biography
    HANGOVER PARADISE is a neo-prog rock band from Holland formed few years ago, more exactly in 2010. This year 2013 they came with the first offer named Mirrors, who gain quite big applause around the world, both from fans and critics as well. Musically speaking the music is on the melodic side of prog, going towards neo with some pop-ish overtones, but very well melted together those two genres. Fans of Saga, Styx, even Eloy in places can take some spins because worth it.
    bio written by b_olariu
    http://www.progarchives.com/artist.asp?id=8522

    Об альбоме (сборнике)

    Hangover Paradise is a prog rock band from Holland formed few years ago, it might be considered a young band, but the musicians involved are not quite youngsters, they are really good over 45 in age, minus the keybord palyer who is the twin brother of the main keybordist of the band, in fact are two use of keybords on the album. The band released few months ago their first album named simply Mirrors and was and is well recived both by critics and aswell fans. I really like the album a lot, is on the melodic side of prog, going towards neo in places with some popish overtones, but excellent combined together those two genres. What I like quite much is the keybords, they sound so '80s , imagine beside keys the overalll bands sound is like Eloy (Planets era) with Saga, the result is Hangover Paradise. Some great passages on opening track I rest my case, melodic lines with great use of each instrument, warm pleasent voice from Elias de Vries, a totaly winner, anopther highlight is Take Away little more up tempo with fascinating keyboards and aswell quite impressive guita lines, it sounds like in 1983 for example, great, and the main atraction of the album the moster piece clocking around 9 min - Army of Innocents (feat as guest on vocals Bert Heerink), kick ass tune, with everything that must have a prog piece today to be really solid, inventive and damn intresting, both in arrangements ans aswell lyricaly. The album ends with another up tempo tune combined with more calmer moments , the title track, who is aswell quite pleasent. All in all this is a fairly solid and damn catchy debut by this dutch band, everything is calculated, pleasent, warm and elegant. Easy 4 stars from me, one of the best from this year for sure, at least for me.
    http://www.progarchives.com/album.asp?id=43357

    Состав

    Peter Zwerus - keyboards
    Henk Zwerus - keyboards
    Pieter Nanuru - guitar
    Cynthio Ooms - bass
    Elias de Vries - vocals
    Jeroen van Stenis - drums
    -
    Скачать .torrent

    Скачать торрент-файл бесплатно и на максимальной скорости!

    Как скачивать? · Что такое торрент? · Рейтинг и ограничения

    !ВНИМАНИЕ!
    Сайт не распространяет и не хранит электронные версии произведений, а занимается лишь лишь предоставлением доступа к создаваемому пользователями каталогу ссылок на торрент-файлы, которые содержат только списки хеш-сумм, убедительная просьба с жалобами обращаться напрямую к пользователю. Файлы для обмена на трекере предоставлены пользователями сайта, и администрация не несёт ответственности за их содержание. Просьба не заливать файлы, защищенные авторскими правами, а также файлы нелегального содержания!

    [Профиль] [ЛС]
    Показать сообщения:    
    Ответить на тему

    Текущее время: Сегодня, в 02:54

    Часовой пояс: GMT + 2



    Вы не можете начинать темы
    Вы не можете отвечать на сообщения
    Вы не можете редактировать свои сообщения
    Вы не можете удалять свои сообщения
    Вы не можете голосовать в опросах
    Вы не можете прикреплять файлы к сообщениям
    Вы не можете скачивать файлы