Register  ·  Log in
Forgot password?

  • Любовь напрокат (Вазген Каграманян) [2014, Мелодрама, комедия, WEBRip]

    Reply to topic
    Author Message


    Post 01-Apr-2016 16:06



    -Любовь напрокат-Жанр:Мелодрама, комедия
    Год выпуска: 2014
    Продолжительность: 01:40:05-Режиссёр: Вазген Каграманян-В ролях: Елена Подкаминская, Дмитрий Миллер, Елена Валюшкина, Грант Каграманян, Иван Шмаков, Евгения Соляных, Михаил Полицеймако, Алина Ольшанская, Анжела Белянская, Екатерина Рокотова--Описание: К преуспевающему бизнесмену Александру приезжает богатая родственница из Америки. 15 лет назад она дала ему начальный капитал и теперь хочет посмотреть, как он им распорядился, а также познакомиться с его семьей. Но проблема в том, что семьи у Александра нет: он ее выдумал, чтобы произвести хорошее впечатление на тетю. Если обман откроется, Александр может лишиться своего бизнеса и наследства. Друг Борис предлагает неожиданный выход: взять напрокат его семью…--Качество видео: WEBRip
    Формат видео: AVI-Видео: XviD 720x400 (16:9), 25.000 fps, 1 565 Kbps, 0.217 Bits/(Pixel*Frame)
    Аудио: AC3 48 kHz, AC3 Dolby Digital, 2,0 ch, ~384 kbps-


    Complete name : D:\Фильмы\Любовь напрокат.avi
    Format : AVI
    Format/Info : Audio Video Interleave
    File size : 1.37 GiB
    Duration : 1h 40mn
    Overall bit rate : 1 959 Kbps
    Writing application : VirtualDubMod | || (build 2550/release)
    Writing library : VirtualDubMod build 2550/release
    ID : 0
    Format : MPEG-4 Visual
    Format profile : Advanced Simple@L5
    Format settings, BVOP : 2
    Format settings, QPel : No
    Format settings, GMC : No warppoints
    Format settings, Matrix : Custom
    Codec ID : XVID
    Codec ID/Hint : XviD
    Duration : 1h 40mn
    Bit rate : 1 565 Kbps
    Width : 720 pixels
    Height : 400 pixels
    Display aspect ratio : 16:9
    Frame rate : 25.000 fps
    Color space : YUV
    Chroma subsampling : 4:2:0
    Bit depth : 8 bits
    Scan type : Progressive
    Compression mode : Lossy
    Bits/(Pixel*Frame) : 0.217
    Stream size : 1.09 GiB (80%)
    Writing library : XviD 1.2.1 (UTC 2008-12-04)
    ID : 1
    Format : AC-3
    Format/Info : Audio Coding 3
    Mode extension : CM (complete main)
    Format settings, Endianness : Big
    Codec ID : 2000
    Duration : 1h 40mn
    Bit rate mode : Constant
    Bit rate : 384 Kbps
    Channel(s) : 2 channels
    Channel positions : Front: L R
    Sampling rate : 48.0 KHz
    Frame rate : 31.250 fps (1536 spf)
    Compression mode : Lossy
    Stream size : 275 MiB (20%)
    Alignment : Split accross interleaves
    Interleave, duration : 40 ms (1.00 video frame)
    Interleave, preload duratio : 500 ms


    Скриншот c названием фильма


    Download .torrent

    Download free and at maximum speed!

    How to Download? · What is a torrent? · Ratings and Limitations

    The site does not extend and does not store electronic(digital) versions of products, and only gives access to a reference catalogue created by users on torrent-files which contain only lists of the hash-sums, the earnest entreaty, with complaints(abuse) to access directly to the user. Files for an exchange on tracker are given by users of a site, and the administration does not bear the responsibility for their maintenance. The request to not fill in the files protected by copyrights, and also files of the illegal maintenance!

    [Profile] [PM]
    Display posts from previous:    
    Reply to topic

    The time now is: Today 01:56

    All times are GMT + 3 Hours

    You cannot post new topics in this forum
    You cannot reply to topics in this forum
    You cannot edit your posts in this forum
    You cannot delete your posts in this forum
    You cannot vote in polls in this forum
    You cannot attach files in this forum
    You cannot download files in this forum