BitTorrentTracker PerecTracker.org
BitTorrentTracker PerecTracker.org
    
Регистрация  ·  Вход
 
 · 
Забыли пароль?

  • Красная королева (Красота по-советски) / Серии: 1-12 из 12 (Алёна Семёнова) [2015, биография, драма, HDTV (1080i)]

    Ответить на тему
     
    Автор Сообщение

    rechyn

    Создавать темы 01-Апр-2016 14:11

           

    [Цитировать]

    Красная королева (Красота по-советски)--Год выпуска: 2015
    Производство: "FILM.UA и Shpil и "Пронто фильм""
    Жанр: биография, драма
    Продолжительность: 00:50:00
    Субтитры: нет-Режиссёр: Алёна Семёнова-В ролях:
    Ксения Лукьянчикова, Артём Ткаченко, Анатолий Руденко, Лариса Домаскина, Елена Морозова, Татьяна Орлова, Янина Студилина, Ада Роговцева, Анна Здор,
    Анна Сагайдачная, Анастасия Евграфова, Наталья Высочанская, Сергей Бачурский, Валерий Баринов, Галина Петрова, Борис Щербаков, Олег Васильков, Анна Цуканова, Алеся Пуховая-Описание:
    Сюжет фильма основан на фактах биографии известной советской манекенщицы Регины Збарской. Ее называли "советской Софи Лорен" и "самым красивым оружием Кремля". Ею восхищались Пьер Карден, Кристиан Диор и Федерико Феллини. Но кем была эта гордая красавица на самом деле? Почему она отказалась от своего имени? Как пришла к успеху? И какую цену за него заплатила? Жизнь одной из самых известных манекенщиц Советского Союза и первой советской модели, ставшей известной на Западе, полна тайн... "Наш фильм о красоте, о первых советских манекенщицах, которые покорили Париж, - рассказывает режиссер фильма Алена Семенова. – Прототипом главной героини стала манекенщица Регина Збарская, которую в ленте зовут Регина Барская. История во многом преувеличена, приукрашена, сделана более сказочной. Но имеет место много исторических фактов, в том числе, и приезд советской делегации в Париж".-Все раздачи сериала-Возраст: 16+-Качество: HDTV (1080i)
    Формат: TS
    Видео кодек: AVC
    Аудио кодек: AC3, MP2


    Видео: AVC, 1920 х 1080 (16:9), 25,000 кадр/сек, 5 662 Кбит/сек, 0.109 bit/pixel
    Аудио 1: AC3, 48000 Hz, 384 Kbps, 6 каналов
    Аудио 2: MP2, 48000 Hz, 192 Kbps, 2 канала
    -

    MediaInfo

    General
    ID : 1 (0x1)
    Complete name : D:\Раздачи\Красная королева (Красота по-советски) (1-12 серии из 12) HDTV (1080i)\Krasnaja koroleva.02.HDTV(1080i).GeneralFilm.ts
    Format : MPEG-TS
    File size : 2.45 GiB
    Duration : 53mn 20s
    Overall bit rate mode : Variable
    Overall bit rate : 6 569 Kbps
    Video
    ID : 604 (0x25C)
    Menu ID : 80 (0x50)
    Format : AVC
    Format/Info : Advanced Video Codec
    Format profile : High@L4
    Format settings, CABAC : Yes
    Format settings, ReFrames : 3 frames
    Format settings, GOP : M=4, N=32
    Codec ID : 27
    Duration : 53mn 20s
    Bit rate : 5 662 Kbps
    Width : 1 920 pixels
    Height : 1 080 pixels
    Display aspect ratio : 16:9
    Frame rate : 25.000 fps
    Standard : Component
    Color space : YUV
    Chroma subsampling : 4:2:0
    Bit depth : 8 bits
    Scan type : Interlaced
    Scan type, store method : Separated fields
    Scan order : Top Field First
    Bits/(Pixel*Frame) : 0.109
    Stream size : 2.11 GiB (86%)
    Color range : Limited
    Color primaries : BT.709
    Transfer characteristics : BT.709
    Matrix coefficients : BT.709
    Audio #1
    ID : 607 (0x25F)
    Menu ID : 80 (0x50)
    Format : AC-3
    Format/Info : Audio Coding 3
    Mode extension : CM (complete main)
    Format settings, Endianness : Big
    Codec ID : 6
    Duration : 53mn 20s
    Bit rate mode : Constant
    Bit rate : 384 Kbps
    Channel(s) : 6 channels
    Channel positions : Front: L C R, Side: L R, LFE
    Sampling rate : 48.0 KHz
    Frame rate : 31.250 fps (1536 spf)
    Compression mode : Lossy
    Stream size : 147 MiB (6%)
    Language : Russian
    Audio #2
    ID : 608 (0x260)
    Menu ID : 80 (0x50)
    Format : MPEG Audio
    Format version : Version 1
    Format profile : Layer 2
    Codec ID : 3
    Duration : 53mn 20s
    Bit rate mode : Constant
    Bit rate : 192 Kbps
    Channel(s) : 2 channels
    Sampling rate : 48.0 KHz
    Compression mode : Lossy
    Stream size : 73.3 MiB (3%)
    Language : Russian
    -

    Скриншоты сериала


    -
    Скачать .torrent

    Скачать торрент-файл бесплатно и на максимальной скорости!

    Как скачивать? · Что такое торрент? · Рейтинг и ограничения

    !ВНИМАНИЕ!
    Сайт не распространяет и не хранит электронные версии произведений, а занимается лишь лишь предоставлением доступа к создаваемому пользователями каталогу ссылок на торрент-файлы, которые содержат только списки хеш-сумм, убедительная просьба с жалобами обращаться напрямую к пользователю. Файлы для обмена на трекере предоставлены пользователями сайта, и администрация не несёт ответственности за их содержание. Просьба не заливать файлы, защищенные авторскими правами, а также файлы нелегального содержания!


    _________________
    [Профиль] [ЛС]
    Показать сообщения:    
    Ответить на тему

    Текущее время: Сегодня, в 01:14

    Часовой пояс: GMT + 2



    Вы не можете начинать темы
    Вы не можете отвечать на сообщения
    Вы не можете редактировать свои сообщения
    Вы не можете удалять свои сообщения
    Вы не можете голосовать в опросах
    Вы не можете прикреплять файлы к сообщениям
    Вы не можете скачивать файлы