BitTorrentTracker PerecTracker.org
BitTorrentTracker PerecTracker.org
    
Регистрация  ·  Вход
 
 · 
Забыли пароль?

  • Ядерный фалафель / Atomic Falafel / Falafel atomi (Дрор Шауль / Dror Shaul) [2015, Израиль, Новая Зеландия, Германия, драма, комедия, HDTVRip] Sub Rus, Heb + Original Heb

    Ответить на тему
     
    Автор Сообщение

    Light

    Создавать темы 01-Апр-2016 11:01

           

    [Цитировать]

    Ядерный фалафель / Atomic Falafel / Falafel atomi
    Страна: Израиль, Новая Зеландия, Германия
    Жанр: драма, комедия
    Год выпуска: 2015
    Продолжительность: 01:31:37
    Перевод: Субтитры
    Cубтитры: русские, иврит
    Оригинальная аудиодорожка: иврит, английский
    Режиссер: Дрор Шауль / Dror Shaul
    В ролях: Микелле Тревес, Шай Авиви, Мали Леви, Александр Фелинг, Идан Кармели, Йосси Маршек, Джонатан Черчи, Зохар Штраусс, Ави Смоларчик
    Описание: Разведка Израиля доложила, что Иран планирует сбросить на Израиль атомную бомбу, чтобы стереть его с лица земли. В качестве превентивной меры Израиль готовит удар по Ирану с применением ракеты с ядерной боеголовкой. Операция по подготовке атаки приостанавливается в связи с внезапным визитом в Израиль комиссии МАГАТЭ с целью инспектирования ядерного реактора. Военные в последний момент пытаются скрыть все улики и отправить комиссию восвояси. Ситуация осложняется, когда один из членов комиссии влюбляется в хозяйку передвижной фалафельной, живущей неподалеку от реактора.
    Доп. информация: 4 номинации Израильской киноакадемии (2015).
    ,
    Сэмпл: http://www.mediafire.com/download/c1haljnrf46j0bz/Sample-Atomic.Falafel.2015.avi
    Качество видео: HDTVRip
    Формат видео: AVI
    Видео: XviD 624х352 16:9 25 кадров/сек 930 Кбит/сек
    Аудио: MP3 48 КГц 2 канала 128 Кбит/сек
    Формат субтитров: русские: softsub (ASS), иврит: hardsub

    Образец субтитров

    Dialogue: 0,0:12:58.48,0:13:00.99,Default,,0,0,0,,Так что за история с ухом?
    Dialogue: 0,0:13:01.00,0:13:03.83,Default,,0,0,0,,20 лет в армии, 150 прыжков с парашютом,
    Dialogue: 0,0:13:03.84,0:13:06.71,Default,,0,0,0,,35 аварий, 24 операции.
    Dialogue: 0,0:13:06.72,0:13:09.75,Default,,0,0,0,,У меня в теле столько гвоздей,\Nчто я не могу выехать из Израиля,
    Dialogue: 0,0:13:09.76,0:13:12.71,Default,,0,0,0,,потому что ни один аэропорт не примет меня.
    Dialogue: 0,0:13:12.72,0:13:16.91,Default,,0,0,0,,Но в прошлом году произошла самая странная вещь.
    Dialogue: 0,0:13:16.92,0:13:20.51,Default,,0,0,0,,Мы готовились к операции,\Nв которой пол-армии должны были прыгать в Ираке,
    Dialogue: 0,0:13:20.52,0:13:23.59,Default,,0,0,0,,переодетыми в танцовщиц живота.
    Dialogue: 0,0:13:23.60,0:13:25.95,Default,,0,0,0,,У меня произошла ещё одна парашютная авария.
    Dialogue: 0,0:13:25.96,0:13:28.03,Default,,0,0,0,,Я проснулся после операции,\Nв которой мне заменили гвоздь,
    Dialogue: 0,0:13:28.04,0:13:30.47,Default,,0,0,0,,соединяющий кость 76 с костью 43,
    Dialogue: 0,0:13:30.48,0:13:32.87,Default,,0,0,0,,между коленом и ногой. И вдруг...
    Dialogue: 0,0:13:32.88,0:13:37.67,Default,,0,0,0,,Доктор! Доктор! Я слышу радио в правом ухе!
    Dialogue: 0,0:13:37.67,0:13:40.96,Default,,0,0,0,,Я ходил к десятку врачей,\Nно ни один не мог найти причину,
    Dialogue: 0,0:13:41.06,0:13:43.15,Default,,0,0,0,,пока, наконец, один специалист не обнаружил,
    Dialogue: 0,0:13:43.16,0:13:44.79,Default,,0,0,0,,что, благодаря гвоздям,
    Dialogue: 0,0:13:44.80,0:13:47.59,Default,,0,0,0,,у меня в теле возникает магнитное поле.
    Dialogue: 0,0:13:47.60,0:13:49.31,Default,,0,0,0,,Я - антенна!
    Dialogue: 0,0:13:49.32,0:13:52.39,Default,,0,0,0,,И единственный путь избавиться от этого -\Nвытаскивать гвозди по одному,
    Dialogue: 0,0:13:52.40,0:13:54.31,Default,,0,0,0,,чтобы увидеть, какой гвоздь является причиной.
    Dialogue: 0,0:13:54.32,0:13:57.31,Default,,0,0,0,,Ещё 24 операции? Я отказался.
    Dialogue: 0,0:13:57.32,0:14:02.32,Default,,0,0,0,,С тех пор я не могу думать и не могу спать.

    MediaInfo

    Общее
    Полное имя : Atomic Falafel.avi
    Формат : AVI
    Формат/Информация : Audio Video Interleave
    Размер файла : 702 Мбайт
    Продолжительность : 1 ч. 31 м.
    Режим общего битрейта : Переменный
    Общий поток : 1071 Кбит/сек
    Программа кодирования : VirtualDubMod 1.5.10.2 (build 2540/release)
    Библиотека кодирования : VirtualDubMod build 2540/release
    Видео
    Идентификатор : 0
    Формат : MPEG-4 Visual
    Профиль формата : Advanced Simple@L5
    Параметр BVOP формата : 2
    Параметр QPel формата : Нет
    Параметр GMC формата : Без точки перехода
    Параметр матрицы формата : Default (H.263)
    Идентификатор кодека : XVID
    Идентификатор кодека/Подсказка : XviD
    Продолжительность : 1 ч. 31 м.
    Битрейт : 930 Кбит/сек
    Ширина : 624 пикселя
    Высота : 352 пикселя
    Соотношение сторон : 16:9
    Частота кадров : 25,000 кадров/сек
    Цветовое пространство : YUV
    Субдискретизация насыщенности : 4:2:0
    Битовая глубина : 8 бит
    Тип развёртки : Чересстрочная
    Порядок развёртки : Нижнее поле первое
    Метод сжатия : С потерями
    Бит/(Пиксели*Кадры) : 0.169
    Размер потока : 609 Мбайт (87%)
    Библиотека кодирования : XviD 64
    Аудио
    Идентификатор : 1
    Формат : MPEG Audio
    Версия формата : Version 1
    Профиль формата : Layer 3
    Режим : Joint stereo
    Расширение режима : MS Stereo
    Идентификатор кодека : 55
    Идентификатор кодека/Подсказка : MP3
    Продолжительность : 1 ч. 31 м.
    Вид битрейта : Переменный
    Битрейт : 128 Кбит/сек
    Каналы : 2 канала
    Частота : 48,0 КГц
    Метод сжатия : С потерями
    Размер потока : 84,2 Мбайт (12%)
    Выравнивание : Соединение по промежуткам
    Продолжительность промежутка : 24 мс. (0,60 видеокадр)
    Время предзагрузки промежутка : 496 мс.
    Библиотека кодирования : LAME3.90.
    Настройки программы : -m j -V 4 -q 2 -lowpass 17.6 --abr 128

    Скриншот c названием фильма

    Скриншоты




    Скачать .torrent

    Скачать торрент-файл бесплатно и на максимальной скорости!

    Как скачивать? · Что такое торрент? · Рейтинг и ограничения

    !ВНИМАНИЕ!
    Сайт не распространяет и не хранит электронные версии произведений, а занимается лишь лишь предоставлением доступа к создаваемому пользователями каталогу ссылок на торрент-файлы, которые содержат только списки хеш-сумм, убедительная просьба с жалобами обращаться напрямую к пользователю. Файлы для обмена на трекере предоставлены пользователями сайта, и администрация не несёт ответственности за их содержание. Просьба не заливать файлы, защищенные авторскими правами, а также файлы нелегального содержания!


    _________________
    [Профиль] [ЛС]
    Показать сообщения:    
    Ответить на тему

    Текущее время: Сегодня, в 15:01

    Часовой пояс: GMT + 2



    Вы не можете начинать темы
    Вы не можете отвечать на сообщения
    Вы не можете редактировать свои сообщения
    Вы не можете удалять свои сообщения
    Вы не можете голосовать в опросах
    Вы не можете прикреплять файлы к сообщениям
    Вы не можете скачивать файлы