BitTorrentTracker PerecTracker.org
BitTorrentTracker PerecTracker.org
    
Регистрация  ·  Вход
 
 · 
Забыли пароль?

  • Движущийся лес / A Floresta Que Se Move (Винисиус Коимбра / Vinicius Coimbra) [2015, Бразилия, триллер, драма, WEBRip] DVO (Avebrasil)

    Ответить на тему
     
    Автор Сообщение

    Light

    Создавать темы 01-Апр-2016 11:01

           

    [Цитировать]

    -Движущийся лес / A Floresta Que Se Move-Страна: Бразилия
    Жанр: триллер, драма
    Год выпуска: 2015
    Продолжительность: 01:38:57-Перевод: Любительский (двухголосый закадровый) Avebrasil
    Cубтитры: нет
    Режиссер: Винисиус Коимбра / Vinicius Coimbra-В ролях: Габриэл Брага Нунес, Ана Паула Арозио, Нелсон Шавьер, Анжело Антонио, Фернанду Алвес Пинто, Мириам Фриланд, Руй Рикарду Диас, Татсу Карвалью, Режина Ременсиус, Жулиана Карнейру да Кунья, Эмилиану Кейроз и другие-Описание: В основе сюжета - классическое произведение Уильяма Шекспира "Макбет". Элиас — успешный руководитель, который работает в одном из самых лучших частных банков Бразилии. У него есть все возможности для хорошего профессионального роста, которые ему дает Эйтор, президент банка. По возвращении из командировки и придя в банк, Элиас сталкивается с таинственной женщиной, которая приветствует его по имени и говорит, что в один день он станет вице-президентом банка, а на следующий — уже президентом.
    Под большим впечатлением, Элиас рассказывает эту историю своей жене Кларе. Клара очень воодушевлена предсказанием незнакомки и предлагает пригласить Эйтора на ужин. С этого момента происходит серия убийств, совершенных парой, которая оставляет за собой кровавый след на пути к власти, которая становится мучителем и жертвой их собственных судеб…
    -Доп. информация: Большое спасибо Нашей любимой Команде Avebrasil за Перевод и озвучку--Качество видео: WEBRip
    Формат видео: MP4-Видео: 1280x720,(16:9) 29,970 fps, 2558 kbps,0.093 bit/pixel
    Аудио: 48 kHz, AAC, 2 ch, 128 Кбит/с

    MediaInfo

    Общее
    Полное имя : C:\Users\Вавилон\Desktop\Раздачи\ДВИЖУЩИЙСЯ ЛЕС.mp4
    Формат : MPEG-4
    Профиль формата : Base Media / Version 2
    Идентификатор кодека : mp42 (mp42/isom)
    Размер файла : 1,86 Гбайт
    Продолжительность : 1 ч. 38 м.
    Режим общего битрейта : Переменный
    Общий поток : 2690 Кбит/сек
    Дата кодирования : UTC 2016-03-31 06:35:40
    Дата пометки : UTC 2016-03-31 06:35:40
    Видео
    Идентификатор : 2
    Формат : AVC
    Формат/Информация : Advanced Video Codec
    Профиль формата : High@L4
    Параметр CABAC формата : Да
    Параметр ReFrames формата : 2 кадра
    Параметр GOP формата : M=2, N=15
    Идентификатор кодека : avc1
    Идентификатор кодека/Информация : Advanced Video Coding
    Продолжительность : 1 ч. 38 м.
    Продолжительность оригинала : 1 ч. 38 м.
    Вид битрейта : Переменный
    Битрейт : 2558 Кбит/сек
    Максимальный битрейт : 2755 Кбит/сек
    Ширина : 1280 пикселей
    Высота : 720 пикселей
    Соотношение сторон : 16:9
    Режим частоты кадров : Постоянный
    Частота кадров : 29,970 (30000/1001) кадров/сек
    Цветовое пространство : YUV
    Субдискретизация насыщенности : 4:2:0
    Битовая глубина : 8 бит
    Тип развёртки : Прогрессивная
    Бит/(Пиксели*Кадры) : 0.093
    Размер потока : 1,77 Гбайт (95%)
    Размер потока оригинала : 1,77 Гбайт (95%)
    Язык : English
    Дата кодирования : UTC 2016-03-31 06:35:40
    Дата пометки : UTC 2016-03-31 06:35:40
    Аудио
    Идентификатор : 1
    Формат : AAC
    Формат/Информация : Advanced Audio Codec
    Профиль формата : LC
    Идентификатор кодека : 40
    Продолжительность : 1 ч. 38 м.
    Вид битрейта : Постоянный
    Битрейт : 128 Кбит/сек
    Каналы : 2 канала
    Расположение каналов : Front: L R
    Частота : 48,0 КГц
    Частота кадров : 46,875 кадров/сек (1024 spf)
    Метод сжатия : С потерями
    Размер потока : 90,6 Мбайт (5%)
    Язык : English
    Дата кодирования : UTC 2016-03-31 06:35:40
    Дата пометки : UTC 2016-03-31 06:35:40

    Скриншот c названием фильма

    Скриншоты

    Скачать .torrent

    Скачать торрент-файл бесплатно и на максимальной скорости!

    Как скачивать? · Что такое торрент? · Рейтинг и ограничения

    !ВНИМАНИЕ!
    Сайт не распространяет и не хранит электронные версии произведений, а занимается лишь лишь предоставлением доступа к создаваемому пользователями каталогу ссылок на торрент-файлы, которые содержат только списки хеш-сумм, убедительная просьба с жалобами обращаться напрямую к пользователю. Файлы для обмена на трекере предоставлены пользователями сайта, и администрация не несёт ответственности за их содержание. Просьба не заливать файлы, защищенные авторскими правами, а также файлы нелегального содержания!


    _________________
    [Профиль] [ЛС]
    Показать сообщения:    
    Ответить на тему

    Текущее время: Сегодня, в 04:19

    Часовой пояс: GMT + 2



    Вы не можете начинать темы
    Вы не можете отвечать на сообщения
    Вы не можете редактировать свои сообщения
    Вы не можете удалять свои сообщения
    Вы не можете голосовать в опросах
    Вы не можете прикреплять файлы к сообщениям
    Вы не можете скачивать файлы