BitTorrentTracker PerecTracker.org
BitTorrentTracker PerecTracker.org
    
Регистрация  ·  Вход
 
 · 
Забыли пароль?

  • (Symphonic Prog / Progressive Rock) [CD] XNA - When We Changed You - 2013, FLAC (image+.cue), lossless

    Ответить на тему
     
    Автор Сообщение

    Columb

    Создавать темы 19-Янв-2014 11:43

           

    [Цитировать]

    XNA / When We Changed You
    Жанр: Symphonic Prog / Progressive Rock
    Носитель: CD
    Страна-производитель диска: US
    Год издания: 2013
    Издатель (лейбл): Sand Canyon Music and Wombat Films, inc. - megalod
    Страна: US
    Аудиокодек: FLAC (*.flac)
    Тип рипа: image+.cue
    Битрейт аудио: lossless
    Продолжительность: 01:05:37
    Источник (релизер): домашние закрома
    Наличие сканов в содержимом раздачи: да
    Треклист:
    1. At Childhood's Beginning (2:01)
    2. When We Changed You (7:19)
    3. Banner of the Whyte Boar (15:04)
    4. The Flying Dutchman (9:27)
    5. The Vale of Avalon (7:08)
    6. Annapurna (8:29)
    7. At Childhood's End (16:06)

    Лог создания рипа

    Exact Audio Copy V1.0 beta 3 from 29. August 2011
    Отчёт EAC об извлечении, выполненном 18. января 2014, 15:03
    Xna / When We Changed You
    Дисковод: ASUS BW-12D1S-U Adapter: 0 ID: 0
    Режим чтения : ДостоверностьИспользование точного потока : ДаОтключение кэша аудио : ДаИспользование указателей C2 : Нет
    Коррекция смещения при чтении : 667Способность читать области Lead-in и Lead-out : НетЗаполнение пропущенных сэмплов тишиной : ДаУдаление блоков с тишиной в начале и конце : НетПри вычислениях CRC использовались нулевые сэмплы : ДаИнтерфейс : Установленный внешний ASPI-интерфейс
    Выходной формат : Пользовательский кодировщикВыбранный битрейт : 1024 kBit/sКачество : ВысокийДобавление ID3-тега : НетУтилита сжатия : C:\Program Files (x86)\Exact Audio Copy\Flac\flac.exeДополнительные параметры : -V -8 -T "Date=%year%" -T "Genre=%genre%" %source%
    TOC извлечённого CD
    Трек | Старт | Длительность | Начальный сектор | Конечный сектор --------------------------------------------------------------------- 1 | 0:00.00 | 2:01.26 | 0 | 9100 2 | 2:01.26 | 7:19.61 | 9101 | 42086 3 | 9:21.12 | 15:03.70 | 42087 | 109881 4 | 24:25.07 | 9:27.72 | 109882 | 152478 5 | 33:53.04 | 7:08.23 | 152479 | 184601 6 | 41:01.27 | 8:29.62 | 184602 | 222838 7 | 49:31.14 | 16:06.10 | 222839 | 295298
    Характеристики диапазона извлечения и сообщения об ошибках
    Выбранный диапазон
    Имя файла F:\Pasheka-Pacheka#rutracker.org\XNA (2013) - When We Changed You\Xna - When We Changed You.wav
    Пиковый уровень 100.0 % Скорость извлечения 1.9 X Качество диапазона 100.0 % CRC теста 95813DAC CRC копии 95813DAC Копирование... OK
    Ошибок не произошло
    AccurateRip: сводка
    Трек 1 отсутствует в базе данныхТрек 2 отсутствует в базе данныхТрек 3 отсутствует в базе данныхТрек 4 отсутствует в базе данныхТрек 5 отсутствует в базе данныхТрек 6 отсутствует в базе данныхТрек 7 отсутствует в базе данных
    Ни одного трека нет в базе AccurateRip
    Конец отчёта
    ==== Контрольная сумма отчёта 9B2DF8744B10C1594F7F90AFF56835F95917A19CA8647E115A5BC7F444B28E3F ====

    Лог проверки качества

    -----------------------
    DON'T MODIFY THIS FILE
    -----------------------
    PERFORMER: auCDtect Task Manager, ver. 1.5.1RC4 build 1.5.1.5Copyright (c) 2008-2010 y-soft. All rights reservedhttp://y-soft.org
    ANALYZER: auCDtect: CD records authenticity detector, version 0.8.2Copyright (c) 2004 Oleg Berngardt. All rights reserved.Copyright (c) 2004 Alexander Djourik. All rights reserved.
    FILE: Xna - When We Changed You.flac Size: 469855004 Hash: 5CD2BB38E1411541603D0E4B29CE1A4C Accuracy: -m0 Conclusion: CDDA 100% Signature: 9AC8F1F3035B35E40E30E49507499C69950137BA

    Скриншот спектра частот

    Об исполнителе (группе)

    Страничка на ПрогАрхивах: http://www.progarchives.com/artist.asp?id=8533

    Состав

    David Hussey/ lead vocals
    Adam Malin/ keyboards
    Scott Connor/ drums/ percussion
    Danny Bryle/ guitars
    Billy Sherwood/ Bass, additional guitars
    Скачать .torrent

    Скачать торрент-файл бесплатно и на максимальной скорости!

    Как скачивать? · Что такое торрент? · Рейтинг и ограничения

    !ВНИМАНИЕ!
    Сайт не распространяет и не хранит электронные версии произведений, а занимается лишь лишь предоставлением доступа к создаваемому пользователями каталогу ссылок на торрент-файлы, которые содержат только списки хеш-сумм, убедительная просьба с жалобами обращаться напрямую к пользователю. Файлы для обмена на трекере предоставлены пользователями сайта, и администрация не несёт ответственности за их содержание. Просьба не заливать файлы, защищенные авторскими правами, а также файлы нелегального содержания!

    [Профиль] [ЛС]
    Показать сообщения:    
    Ответить на тему

    Текущее время: Сегодня, в 08:56

    Часовой пояс: GMT + 2



    Вы не можете начинать темы
    Вы не можете отвечать на сообщения
    Вы не можете редактировать свои сообщения
    Вы не можете удалять свои сообщения
    Вы не можете голосовать в опросах
    Вы не можете прикреплять файлы к сообщениям
    Вы не можете скачивать файлы