BitTorrentTracker PerecTracker.org
BitTorrentTracker PerecTracker.org
    
Регистрация  ·  Вход
 
 · 
Забыли пароль?

  • Защитник / Concussion (Питер Ландесман / Peter Landesman ) [2015, США, Драма, биография, спорт, BDRip, HD (720p)] DUB + Original + sub (rus, eng)

    Ответить на тему
     
    Автор Сообщение

    rechyn

    Создавать темы 31-Мар-2016 14:22

           

    [Цитировать]

    Защитник / Concussion
    «Even Legends Need a Hero»
    6.637 / 10 7.10 / 10
    -Год выпуска: 2015
    Страна: США
    Жанр: Драма, биография, спорт
    Продолжительность: 02:02:49
    Перевод: Дублированный (iTunes)
    Оригинальная аудиодорожка: Есть
    Cубтитры: Русские форсированные, Русские, Английские, Английские SDH
    Режиссёр: Питер Ландесман
    Сценарий: Питер Ландесман, Jeanne Marie Laskas
    Продюсер: Элизабет Кантильон, Ридли Скотт, Ларри Шуман
    Оператор: Сальваторе Тотино
    Композитор: Джеймс Ньютон Ховард
    Художник: Дэвид Крэнк, Том Фролинг, Дэйна Пинк
    Монтаж: Уильям Голденберг
    В ролях: Уилл Смит, Алек Болдуин, Альберт Брукс, Гугу Эмбата-Ро, Дэвид Морс, Арлисс Ховард, Майк О’Мэлли, Эдди Марсан, Хилл Харпер, Адевале Акинойе-Агбаже
    Бюджет: $35 000 000
    Сборы в США: $34 531 832
    Сборы в мире: + $12 713 332 = $47 245 164
    Сборы в России:
    Мировая премьера: 10 ноября 2015
    Описание: Америка потрясена чередой неожиданных и необъяснимых смертей знаменитых спортсменов. Разгадать загадку предстоит талантливому молодому нейрохирургу, но, как оказалось, не все готовы услышать жестокую правду…-Качество исходника: BDRemux (HDClub)
    Качество: BDRip
    Тип: HD (720p)
    Контейнер: M4V
    Видео: H.264, 1280x528, 2.40:1, 3 500 Kbps, 23.976 (24000/1001) fps
    Аудио 1: Русский/Дублированный (iTunes), AAC / 2.0 / 157 Kbps / 48.0 KHz
    Аудио 2: Английский/Оригинальная дорожка , AAC / 2.0 / 158 Kbps / 48.0 KHz
    Аудио 3: Русский/Дублированный (iTunes), AC-3 / 5.1 / 384 Kbps / 48.0 KHz
    Аудио 4: Английский/Оригинальная дорожка , AC-3 / 5.1 / 640 Kbps / 48.0 KHz
    Субтитры 1: Русские форсированные
    Субтитры 2: Русские полные
    Субтитры 3: Английские полные
    Субтитры 4: Английские полные
    -

    iTunes Meta Tags

    Sort Name: Concussion
    XID: Apple:vendor_id:2015-807640
    contentID: 1065710558
    Screenwriters: Питер Ландесман, Jeanne Marie Laskas
    Producers: Элизабет Кантильон, Ридли Скотт, Ларри Шуман
    Director: Питер Ландесман
    Cast: Уилл Смит, Алек Болдуин, Альберт Брукс, Гугу Эмбата-Ро, Дэвид Морс, Арлисс Ховард, Майк О’Мэлли, Эдди Марсан, Хилл Харпер, Адевале Акинойе-Агбаже
    Studio: Columbia Pictures
    Rating Annotation: Rated PG-13 for thematic material including some disturbing images, and language
    Rating: 4
    Long Description: Америка потрясена чередой неожиданных и необъяснимых смертей знаменитых спортсменов. Разгадать загадку предстоит талантливому молодому нейрохирургу, но, как оказалось, не все готовы услышать жестокую правду...
    Description: Америка потрясена чередой неожиданных и необъяснимых смертей знаменитых спортсменов. Разгадать загадку предстоит талантливому молодому нейрохирургу, но, как оказалось, не все готовы услышать жестокую правду...
    Release Date: 2015-11-10T08:00:00Z
    Genre: Drama
    Artist: Peter Landesman
    Name: Concussion

    MediaInfo

    General
    Complete name : /Users/imac/HandBrake/Concussion (720p HD).m4v
    Format : MPEG-4
    Codec ID : M4V  (M4V /M4A /mp42/isom)
    File size : 4.16 GiB
    Duration : 2h 2mn
    Overall bit rate mode : Variable
    Overall bit rate : 4 848 Kbps
    Movie name : Concussion
    Performer : Peter Landesman
    Director : Питер Ландесман
    Actor : Уилл Смит / Алек Болдуин / Альберт Брукс / Гугу Эмбата-Ро / Дэвид Морс / Арлисс Ховард / Майк О’Мэлли / Эдди Марсан / Хилл Харпер / Адевале Акинойе-Агбаже
    Screenplay by : Питер Ландесман / Jeanne Marie Laskas
    Producer : Элизабет Кантильон / Ридли Скотт / Ларри Шуман
    Production studio : Columbia Pictures
    Genre : Drama
    ContentType : Short Film
    Description : Америка потрясена чередой неожиданных и необъяснимых смертей знаменитых спортсменов. Разгадать загадку предстоит талантливому молодому нейрохирургу, но, как оказалось, не все готовы услышать жестокую правду...
    Recorded date : UTC 2015-11-10 08:00:00
    Encoded date : UTC 2016-03-31 10:08:18
    Tagged date : UTC 2016-03-31 10:09:20
    Cover : Yes
    Rating : None
    Title/Sort : Concussion
    LongDescription : Америка потрясена чередой неожиданных и необъяснимых смертей знаменитых спортсменов. Разгадать загадку предстоит талантливому молодому нейрохирургу, но, как оказалось, не все готовы услышать жестокую правду...
    HDVideo : Yes
    AppleStoreCatalogID : 1065710558
    Vendor : Apple:vendor_id:2015-807640
    ContentRating : mpaa|PG-13|300|Rated PG-13 for thematic material including some disturbing images, and language
    Video #1
    ID : 1
    Format : AVC
    Format/Info : Advanced Video Codec
    Format profile : High@L3.1
    Format settings, CABAC : No
    Format settings, ReFrames : 3 frames
    Codec ID : avc1
    Codec ID/Info : Advanced Video Coding
    Duration : 2h 2mn
    Source duration : 2h 2mn
    Bit rate : 3 500 Kbps
    Width : 1 280 pixels
    Height : 528 pixels
    Display aspect ratio : 2.40:1
    Frame rate mode : Variable
    Frame rate : 23.976 (24000/1001) fps
    Minimum frame rate : 23.974 fps
    Maximum frame rate : 23.981 fps
    Color space : YUV
    Chroma subsampling : 4:2:0
    Bit depth : 8 bits
    Scan type : Progressive
    Bits/(Pixel*Frame) : 0.216
    Stream size : 3.00 GiB (72%)
    Source stream size : 3.00 GiB (72%)
    Title : Main Program
    Writing library : x264 core 142 r2479 dd79a61
    Encoding settings : cabac=0 / ref=3 / deblock=1:-3:-3 / analyse=0x3:0x113 / me=umh / subme=9 / psy=1 / psy_rd=1.00:0.15 / mixed_ref=1 / me_range=32 / chroma_me=1 / trellis=0 / 8x8dct=1 / cqm=0 / deadzone=21,11 / fast_pskip=0 / chroma_qp_offset=-2 / threads=36 / lookahead_threads=3 / sliced_threads=0 / nr=0 / decimate=0 / interlaced=0 / bluray_compat=0 / constrained_intra=0 / bframes=3 / b_pyramid=0 / b_adapt=2 / b_bias=0 / direct=1 / weightb=0 / open_gop=0 / weightp=0 / keyint=240 / keyint_min=24 / scenecut=40 / intra_refresh=0 / rc_lookahead=40 / rc=2pass / mbtree=1 / bitrate=3500 / ratetol=1.0 / qcomp=0.65 / qpmin=0 / qpmax=69 / qpstep=4 / cplxblur=20.0 / qblur=0.5 / vbv_maxrate=9500 / vbv_bufsize=9500 / nal_hrd=none / filler=0 / ip_ratio=1.40 / aq=1:1.10
    Language : English
    Encoded date : UTC 2016-03-31 10:08:18
    Tagged date : UTC 2016-03-31 10:08:25
    Color range : Limited
    Color primaries : BT.709
    Transfer characteristics : BT.709
    Matrix coefficients : BT.709
    Menus : 10,11
    Video #2
    ID : 11
    Format : JPEG
    Codec ID : jpeg
    Duration : 2h 2mn
    Bit rate mode : Variable
    Bit rate : 560 bps
    Width : 640 pixels
    Height : 264 pixels
    Display aspect ratio : 2.40:1
    Frame rate mode : Constant
    Frame rate : 0.002 fps
    Color space : YUV
    Chroma subsampling : 4:2:0
    Bit depth : 8 bits
    Compression mode : Lossy
    Bits/(Pixel*Frame) : 1.657
    Stream size : 547 KiB (0%)
    Title : Chapter Images
    Language : English
    Default : No
    Encoded date : UTC 2016-03-31 10:08:49
    Tagged date : UTC 2016-03-31 10:08:49
    Menu For : 1
    Audio #1
    ID : 2
    Format : AAC
    Format/Info : Advanced Audio Codec
    Format profile : LC
    Codec ID : 40
    Duration : 2h 2mn
    Bit rate mode : Variable
    Bit rate : 157 Kbps
    Maximum bit rate : 238 Kbps
    Channel(s) : 2 channels
    Channel positions : Front: L R
    Sampling rate : 48.0 KHz
    Frame rate : 46.875 fps (1024 spf)
    Compression mode : Lossy
    Stream size : 138 MiB (3%)
    Title : Russian Stereo
    Language : Russian
    Default : Yes
    Alternate group : 1
    Encoded date : UTC 2016-03-31 10:08:18
    Tagged date : UTC 2016-03-31 10:08:45
    Fallback From : 4
    Subtitles : 6,7
    Audio #2
    ID : 3
    Format : AAC
    Format/Info : Advanced Audio Codec
    Format profile : LC
    Codec ID : 40
    Duration : 2h 2mn
    Bit rate mode : Variable
    Bit rate : 158 Kbps
    Maximum bit rate : 234 Kbps
    Channel(s) : 2 channels
    Channel positions : Front: L R
    Sampling rate : 48.0 KHz
    Frame rate : 46.875 fps (1024 spf)
    Compression mode : Lossy
    Stream size : 139 MiB (3%)
    Title : English Stereo
    Language : English
    Default : No
    Alternate group : 1
    Encoded date : UTC 2016-03-31 10:08:18
    Tagged date : UTC 2016-03-31 10:08:45
    Fallback From : 5
    Audio #3
    ID : 4
    Format : AC-3
    Format/Info : Audio Coding 3
    Mode extension : CM (complete main)
    Format settings, Endianness : Big
    Codec ID : ac-3
    Duration : 2h 2mn
    Bit rate mode : Constant
    Bit rate : 384 Kbps
    Channel(s) : 6 channels
    Channel positions : Front: L C R, Side: L R, LFE
    Sampling rate : 48.0 KHz
    Frame rate : 31.250 fps (1536 spf)
    Bit depth : 16 bits
    Compression mode : Lossy
    Stream size : 337 MiB (8%)
    Title : Russian DD 5.1
    Language : Russian
    Default : Inherited From: 2
    Alternate group : 1
    Encoded date : UTC 2016-03-31 10:08:18
    Tagged date : UTC 2016-03-31 10:08:45
    Fallback To : 2
    Subtitles : 6,7
    Audio #4
    ID : 5
    Format : AC-3
    Format/Info : Audio Coding 3
    Mode extension : CM (complete main)
    Format settings, Endianness : Big
    Codec ID : ac-3
    Duration : 2h 2mn
    Bit rate mode : Constant
    Bit rate : 640 Kbps
    Channel(s) : 6 channels
    Channel positions : Front: L C R, Side: L R, LFE
    Sampling rate : 48.0 KHz
    Frame rate : 31.250 fps (1536 spf)
    Bit depth : 16 bits
    Compression mode : Lossy
    Stream size : 562 MiB (13%)
    Title : English DD 5.1
    Language : English
    Default : No
    Alternate group : 1
    Encoded date : UTC 2016-03-31 10:08:18
    Tagged date : UTC 2016-03-31 10:08:45
    Fallback To : 3
    Text #1
    ID : 6
    Format : Timed Text
    Muxing mode : sbtl
    Codec ID : tx3g
    Duration : 1h 57mn
    Bit rate mode : Variable
    Bit rate : 2 bps
    Stream size : 1.55 KiB (0%)
    Title : Russian forced
    Language : Russian
    Default : Yes
    Forced : Yes
    Alternate group : 2
    Encoded date : UTC 2016-03-31 10:08:18
    Tagged date : UTC 2016-03-31 10:08:45
    Subtitles For : 2,4
    Full Alternative : 7
    Text #2
    ID : 7
    Format : Timed Text
    Muxing mode : sbtl
    Codec ID : tx3g
    Duration : 1h 57mn
    Bit rate mode : Variable
    Bit rate : 103 bps
    Stream size : 89.0 KiB (0%)
    Title : Russian full
    Language : Russian
    Default : No
    Forced : No
    Alternate group : 2
    Encoded date : UTC 2016-03-31 10:08:18
    Tagged date : UTC 2016-03-31 10:08:45
    Subtitles For : 2,4
    Forced Alternative : 6
    Text #3
    ID : 8
    Format : Timed Text
    Muxing mode : sbtl
    Codec ID : tx3g
    Duration : 1h 57mn
    Bit rate mode : Variable
    Bit rate : 59 bps
    Stream size : 50.9 KiB (0%)
    Title : English full
    Language : English
    Default : No
    Forced : No
    Alternate group : 2
    Encoded date : UTC 2016-03-31 10:08:18
    Tagged date : UTC 2016-03-31 10:08:44
    Text #4
    ID : 9
    Format : Timed Text
    Muxing mode : sbtl
    Codec ID : tx3g
    Duration : 2h 0mn
    Bit rate mode : Variable
    Bit rate : 66 bps
    Stream size : 58.7 KiB (0%)
    Title : English SDH
    Language : English
    Default : No
    Forced : No
    Alternate group : 2
    Encoded date : UTC 2016-03-31 10:08:18
    Tagged date : UTC 2016-03-31 10:08:45
    Menu #1
    00:00:00.000 : Chapter 1
    00:07:26.780 : Chapter 2
    00:14:41.172 : Chapter 3
    00:21:48.140 : Chapter 4
    00:29:36.358 : Chapter 5
    00:37:43.011 : Chapter 6
    00:43:44.622 : Chapter 7
    00:51:30.087 : Chapter 8
    00:59:35.530 : Chapter 9
    01:06:58.348 : Chapter 10
    01:13:07.592 : Chapter 11
    01:22:18.392 : Chapter 12
    01:30:34.137 : Chapter 13
    01:38:15.181 : Chapter 14
    01:46:47.026 : Chapter 15
    01:53:34.891 : Chapter 16
    Menu #2
    ID : 10
    Codec ID : text
    Duration : 2h 2mn
    Title : Chapter Images
    Language : English
    Encoded date : UTC 2016-03-31 10:08:45
    Tagged date : UTC 2016-03-31 10:08:45
    Menu For : 1
    00:00:00.000 : Chapter 1
    00:07:26.780 : Chapter 2
    00:14:41.172 : Chapter 3
    00:21:48.140 : Chapter 4
    00:29:36.358 : Chapter 5
    00:37:43.011 : Chapter 6
    00:43:44.622 : Chapter 7
    00:51:30.087 : Chapter 8
    00:59:35.530 : Chapter 9
    01:06:58.348 : Chapter 10
    01:13:07.592 : Chapter 11
    01:22:18.392 : Chapter 12
    01:30:34.137 : Chapter 13
    01:38:15.181 : Chapter 14
    01:46:47.026 : Chapter 15
    01:53:34.891 : Chapter 16
    Bit rate mode : VBR

    x264 лог

    x264 [info]: frame I:1645  Avg QP:13.06  size: 95321
    x264 [info]: frame P:64097 Avg QP:14.96  size: 32325
    x264 [info]: frame B:110946 Avg QP:16.24  size:  8966
    x264 [info]: consecutive B-frames:  3.9% 31.1% 18.2% 46.8%
    x264 [info]: mb I  I16..4:  8.3% 63.2% 28.6%
    x264 [info]: mb P  I16..4:  1.6%  6.9%  2.3%  P16..4: 43.6% 28.8% 12.9%  0.0%  0.0%    skip: 4.0%
    x264 [info]: mb B  I16..4:  0.1%  0.7%  0.2%  B16..8: 45.1% 14.4%  2.2%  direct: 3.6%  skip:33.7%  L0:41.7% L1:50.8% BI: 7.5%
    x264 [info]: 8x8 transform intra:64.3% inter:41.5%
    x264 [info]: coded y,uvDC,uvAC intra: 86.8% 68.7% 47.4% inter: 27.1% 14.3% 7.9%
    x264 [info]: i16 v,h,dc,p: 43% 13% 10% 34%
    x264 [info]: i8 v,h,dc,ddl,ddr,vr,hd,vl,hu:  9%  9% 10% 11% 14% 13% 13% 11% 11%
    x264 [info]: i4 v,h,dc,ddl,ddr,vr,hd,vl,hu:  9% 10%  4% 12% 17% 15% 14% 10%  9%
    x264 [info]: i8c dc,h,v,p: 56% 16% 18% 10%
    x264 [info]: ref P L0: 70.1% 17.6% 12.3%
    x264 [info]: ref B L0: 78.8% 21.2%
    x264 [info]: kb/s:3499.26

    Скриншоты

    -

    Релиз подготовлен для просмотра на Apple TV, iPad, iPhone, iPod Touch.
    Для просмотра данного релиза на компьютере с ОС Windows рекомендуется использовать VLC media player
    Скачать .torrent

    Скачать торрент-файл бесплатно и на максимальной скорости!

    Как скачивать? · Что такое торрент? · Рейтинг и ограничения

    !ВНИМАНИЕ!
    Сайт не распространяет и не хранит электронные версии произведений, а занимается лишь лишь предоставлением доступа к создаваемому пользователями каталогу ссылок на торрент-файлы, которые содержат только списки хеш-сумм, убедительная просьба с жалобами обращаться напрямую к пользователю. Файлы для обмена на трекере предоставлены пользователями сайта, и администрация не несёт ответственности за их содержание. Просьба не заливать файлы, защищенные авторскими правами, а также файлы нелегального содержания!


    _________________
    [Профиль] [ЛС]
    Показать сообщения:    
    Ответить на тему

    Текущее время: Сегодня, в 06:02

    Часовой пояс: GMT + 2



    Вы не можете начинать темы
    Вы не можете отвечать на сообщения
    Вы не можете редактировать свои сообщения
    Вы не можете удалять свои сообщения
    Вы не можете голосовать в опросах
    Вы не можете прикреплять файлы к сообщениям
    Вы не можете скачивать файлы