Register  ·  Log in
Forgot password?

  • Голодные игры: Сойка-пересмешница. Часть II / The Hunger Games: Mockingjay - Part 2 (Френсис Лоуренс / Francis Lawrence) [2015, США, Германия, фантастика, приключения, BDRip] Dub (iTunes)

    Reply to topic
    Author Message


    Post 31-Mar-2016 03:00



    Голодные игры: Сойка-пересмешница. Часть II / The Hunger Games: Mockingjay - Part 2
    Страна: США, Германия
    Жанр: фантастика, приключения
    Годы выпуска: 2015
    Продолжительность: 02:16:57
    Перевод: Профессиональный (дублированный) iTunes
    Субтитры: нет
    Оригинальная аудиодорожка: нет
    Режиссер: Френсис Лоуренс / Francis Lawrence
    В ролях: Дженнифер Лоуренс, Джош Хатчерсон, Лиам Хемсворт, Вуди Харрельсон, Элизабет Бэнкс, Джулианна Мур, Филип Сеймур Хоффман, Джеффри Райт, Стэнли Туччи, Дональд Сазерленд, Уиллоу Шилдс, Сэм Клафлин, Джена Мэлоун, Махершала Али, Натали Дормер, Уэс Чэтэм, Мишель Форбс, Элден Хенсон, Патина Ренеа Миллер, Ивэн Росс
    Описание: Китнисс Эвердин и своенравный Пит Мелларк пытаются выиграть гражданскую войну между самодержавным Капитолием и истерзанными войной районами Панема…
    Доп. информация:
    Качество видео: BDRip | sergey_n/1080p BD-Remux
    Формат видео: AVI
    Видео: 720x304 (2.37:1), 23.976 fps, XviD build 73 ~1887 kbps avg, 0.36 bit/pixel
    Аудио: 48 kHz, AC3 Dolby Digital, 3/2 (L,C,R,l,r) + LFE ch, ~384 kbps


    Complete name : C:\The.Hunger.Games.Mockingjay.Part.2.2015.BDRip.Dub_by_LBS.avi
    Format : AVI
    Format/Info : Audio Video Interleave
    Format profile : OpenDML
    File size : 2.18 GiB
    Duration : 2h 16mn
    Overall bit rate : 2 278 Kbps
    Director : Last Boy Scout
    Writing application : VirtualDubMod | || (build 2550/release)
    Copyright : 30.03.2016
    Comment : BDRip Dub (iTunes)
    ID : 0
    Format : MPEG-4 Visual
    Format profile : Advanced Simple@L5
    Format settings, BVOP : 1
    Format settings, QPel : No
    Format settings, GMC : No warppoints
    Format settings, Matrix : Custom
    Codec ID : XVID
    Codec ID/Hint : XviD
    Duration : 2h 16mn
    Bit rate : 1 882 Kbps
    Width : 720 pixels
    Height : 304 pixels
    Display aspect ratio : 2.35:1
    Frame rate : 23.976 fps
    Color space : YUV
    Chroma subsampling : 4:2:0
    Bit depth : 8 bits
    Scan type : Progressive
    Compression mode : Lossy
    Bits/(Pixel*Frame) : 0.359
    Stream size : 1.80 GiB (83%)
    Writing library : XviD 73
    ID : 1
    Format : AC-3
    Format/Info : Audio Coding 3
    Mode extension : CM (complete main)
    Format settings, Endianness : Big
    Codec ID : 2000
    Duration : 2h 16mn
    Bit rate mode : Constant
    Bit rate : 384 Kbps
    Channel(s) : 6 channels
    Channel positions : Front: L C R, Side: L R, LFE
    Sampling rate : 48.0 KHz
    Bit depth : 16 bits
    Compression mode : Lossy
    Stream size : 376 MiB (17%)
    Alignment : Split accross interleaves
    Interleave, duration : 42 ms (1.00 video frame)
    Interleave, preload duration : 500 ms


    Download .torrent

    Download free and at maximum speed!

    How to Download? · What is a torrent? · Ratings and Limitations

    The site does not extend and does not store electronic(digital) versions of products, and only gives access to a reference catalogue created by users on torrent-files which contain only lists of the hash-sums, the earnest entreaty, with complaints(abuse) to access directly to the user. Files for an exchange on tracker are given by users of a site, and the administration does not bear the responsibility for their maintenance. The request to not fill in the files protected by copyrights, and also files of the illegal maintenance!

    [Profile] [PM]
    Display posts from previous:    
    Reply to topic

    The time now is: Today 21:58

    All times are GMT + 3 Hours

    You cannot post new topics in this forum
    You cannot reply to topics in this forum
    You cannot edit your posts in this forum
    You cannot delete your posts in this forum
    You cannot vote in polls in this forum
    You cannot attach files in this forum
    You cannot download files in this forum