Register  ·  Log in
Forgot password?

  • Третий лишний 2 / Ted 2 (Сет МакФарлейн / Seth MacFarlane) [2015, США, Комедия, BDRip] [Расширенная версия / Unrated Version] Dub (со вставками AVO Д. Есарев)

    Reply to topic
    Author Message


    Post 30-Mar-2016 10:43



    Третий лишний 2 / Ted 2 [Расширенная версия / Unrated Version]--Страна: США
    Жанр: Комедия
    Продолжительность: 02:05:51
    Год выпуска: 2015
    -Перевод: Профессиональный (дублированный) | iTunes (со вставками AVO Д. Есарев на расширенные эпизоды)
    Субтитры: нет
    Режиссёр: Сет МакФарлейн / Seth MacFarlane
    -В ролях:
    Марк Уолберг, Сет МакФарлейн, Аманда Сайфред, Джованни Рибизи, Джон Слэттери, Морган Фримен, Джессика Барт, Сэм Дж. Джонс, Патрик Варбертон, Майкл Дорн, Билл Смитрович, Коко Браун, Джон Кэрролл Линч, Рон Кэнада, Лиам Нисон, Дэннис Хэйсбёрт, Патрик Стюарт, Том Брэйди, Джей Лено, Джимми Киммел
    Плюшевый беспредельщик продолжает сводить с ума чопорную интеллигенцию. На этот раз говорящий медвежонок с большим эго и его длинноногая блондинка решили завести ребенка. Там где не постаралась природа, на помощь приходят звездные доноры, городские сумасшедшие и верный друг Джонни. Он только что расстался с Лори и готов к новым авантюрам. Третий здесь совсем не лишний.
    -Сэмпл:Качество: BDRip - Исходник - Blu-Ray 1080p
    Формат: AVI
    Видео: 720x304 (2.37:1), 23.976 fps, XviD MPEG-4 ~1267 kbps avg, 0.24 bit/pixel
    Аудио: 48 kHz, AC3 Dolby Digital, 3/2 (L,C,R,l,r) + LFE ch, ~384 kbps

    Отчёт MediaInfo

    Complete name : C:\Users\Максим\Desktop\Ted.2.2015.Unrated.BDRip.polkera.avi
    Format : AVI
    Format/Info : Audio Video Interleave
    File size : 1.46 GiB
    Duration : 2h 5mn
    Overall bit rate : 1 661 Kbps
    Writing application : VirtualDubMod (build 2540/release)
    Writing library : VirtualDubMod build 2540/release
    Format : MPEG-4 Visual
    Format profile : Streaming Video@L1
    Format settings, BVOP : Yes
    Format settings, QPel : No
    Format settings, GMC : No warppoints
    Format settings, Matrix : Custom
    Codec ID : XVID
    Codec ID/Hint : XviD
    Duration : 2h 5mn
    Bit rate : 1 268 Kbps
    Width : 720 pixels
    Height : 304 pixels
    Display aspect ratio : 2.35
    Frame rate : 23.976 fps
    Resolution : 24 bits
    Colorimetry : 4:2:0
    Scan type : Progressive
    Bits/(Pixel*Frame) : 0.242
    Stream size : 1.11 GiB (76%)
    Writing library : XviD 1.2.1 (UTC 2008-12-04)
    Format : AC-3
    Format/Info : Audio Coding 3
    Codec ID : 2000
    Duration : 2h 5mn
    Bit rate mode : Constant
    Bit rate : 384 Kbps
    Channel(s) : 6 channels
    Channel positions : Front: L C R, Surround: L R, LFE
    Sampling rate : 48.0 KHz
    Stream size : 345 MiB (23%)
    Alignment : Aligned on interleaves
    Interleave, duration : 42 ms (1.00 video frame)
    Interleave, preload duration : 512 ms



    Download .torrent

    Download free and at maximum speed!

    How to Download? · What is a torrent? · Ratings and Limitations

    The site does not extend and does not store electronic(digital) versions of products, and only gives access to a reference catalogue created by users on torrent-files which contain only lists of the hash-sums, the earnest entreaty, with complaints(abuse) to access directly to the user. Files for an exchange on tracker are given by users of a site, and the administration does not bear the responsibility for their maintenance. The request to not fill in the files protected by copyrights, and also files of the illegal maintenance!

    [Profile] [PM]
    Display posts from previous:    
    Reply to topic

    The time now is: Today 22:50

    All times are GMT + 3 Hours

    You cannot post new topics in this forum
    You cannot reply to topics in this forum
    You cannot edit your posts in this forum
    You cannot delete your posts in this forum
    You cannot vote in polls in this forum
    You cannot attach files in this forum
    You cannot download files in this forum