BitTorrentTracker PerecTracker.org
BitTorrentTracker PerecTracker.org
    
Регистрация  ·  Вход
 
 · 
Забыли пароль?

  • (Eurodance) Diana's - You Are My Angel (CDM) - 1996, FLAC (image+.cue), lossless

    Ответить на тему
     
    Автор Сообщение

    Columb

    Создавать темы 19-Янв-2014 11:17

           

    [Цитировать]

    Diana's - You Are My Angel (CDM)-Жанр: Eurodance
    Страна-производитель диска: Germany
    Год издания: 1996
    Издатель (лейбл): ZYX Music
    Номер по каталогу: ZYX 8350-8
    Страна: Italy
    Аудиокодек: FLAC (*.flac)
    Тип рипа: image+.cue
    Битрейт аудио: lossless
    Продолжительность: 00:33:13
    Источник (релизер): собственный рип
    Наличие сканов в содержимом раздачи: да-Треклист:
    1 You Are My Angel (Radio Edit) 3:35
    2 You Are My Angel (Solar Mix) 4:56
    3 You Are My Angel (Program Mix) 5:40
    4 You Are My Angel (Iskhon Mix) 6:27
    5 You Are My Angel (Spherika Mix) 5:47
    6 You Are My Angel (Alternative Mix) 6:50
    -

    Лог создания рипа

    Exact Audio Copy V1.0 beta 3 from 29. August 2011
    Отчёт EAC об извлечении, выполненном 17. января 2014, 21:32
    Diana's / You Are My Angel
    Дисковод: SlimtypeDVD A DS8A8SH Adapter: 0 ID: 1
    Режим чтения : ДостоверностьИспользование точного потока : ДаОтключение кэша аудио : ДаИспользование указателей C2 : Нет
    Коррекция смещения при чтении : 6Способность читать области Lead-in и Lead-out : НетЗаполнение пропущенных сэмплов тишиной : ДаУдаление блоков с тишиной в начале и конце : НетПри вычислениях CRC использовались нулевые сэмплы : ДаИнтерфейс : Встроенный Win32-интерфейс для Win NT/2000
    Выходной формат : Пользовательский кодировщикВыбранный битрейт : 896 kBit/sКачество : ВысокийДобавление ID3-тега : НетУтилита сжатия : C:\Program Files (x86)\Exact Audio Copy\Flac\flac.exeДополнительные параметры : -V -8 -T "Date=%year%" -T "Genre=%genre%" %source%
    TOC извлечённого CD
    Трек | Старт | Длительность | Начальный сектор | Конечный сектор --------------------------------------------------------------------- 1 | 0:00.00 | 3:34.51 | 0 | 16100 2 | 3:34.51 | 4:56.39 | 16101 | 38339 3 | 8:31.15 | 5:39.36 | 38340 | 63800 4 | 14:10.51 | 6:27.11 | 63801 | 92836 5 | 20:37.62 | 5:47.25 | 92837 | 118886 6 | 26:25.12 | 6:47.64 | 118887 | 149475
    Характеристики диапазона извлечения и сообщения об ошибках
    Выбранный диапазон
    Имя файла E:\Downloads\Diana's - You Are My Angel (CDM-1996-Flac)\Diana's - You Are My Angel.wav
    Пиковый уровень 94.9 % Скорость извлечения 2.6 X Качество диапазона 99.9 % CRC теста DDB101E9 CRC копии DDB101E9 Копирование... OK
    Ошибок не произошло
    AccurateRip: сводка
    Трек 1 : извлечено точно (доверие 2) [6B235B41] (AR v2)Трек 2 : извлечено точно (доверие 2) [3D074F40] (AR v2)Трек 3 : извлечено точно (доверие 2) [916E433D] (AR v2)Трек 4 : извлечено точно (доверие 2) [0364EFB7] (AR v2)Трек 5 : извлечено точно (доверие 2) [5B971BEA] (AR v2)Трек 6 : извлечено точно (доверие 2) [2994A3B4] (AR v2)
    Все треки извлечены точно
    Конец отчёта
    ==== Контрольная сумма отчёта E4BD464DC730FC5060FB6A4AA72FB03609B70C2F183924A464881B5AA011F9C2 ====
    -Доп. информация: Рип мой,с оригинального диска из моей коллекции.Сканы обложки и диска внутри торрeнта (600 dpi,PNG).Приятного прослушивания!-
    Скачать .torrent

    Скачать торрент-файл бесплатно и на максимальной скорости!

    Как скачивать? · Что такое торрент? · Рейтинг и ограничения

    !ВНИМАНИЕ!
    Сайт не распространяет и не хранит электронные версии произведений, а занимается лишь лишь предоставлением доступа к создаваемому пользователями каталогу ссылок на торрент-файлы, которые содержат только списки хеш-сумм, убедительная просьба с жалобами обращаться напрямую к пользователю. Файлы для обмена на трекере предоставлены пользователями сайта, и администрация не несёт ответственности за их содержание. Просьба не заливать файлы, защищенные авторскими правами, а также файлы нелегального содержания!

    [Профиль] [ЛС]
    Показать сообщения:    
    Ответить на тему

    Текущее время: Сегодня, в 21:47

    Часовой пояс: GMT + 2



    Вы не можете начинать темы
    Вы не можете отвечать на сообщения
    Вы не можете редактировать свои сообщения
    Вы не можете удалять свои сообщения
    Вы не можете голосовать в опросах
    Вы не можете прикреплять файлы к сообщениям
    Вы не можете скачивать файлы