BitTorrentTracker PerecTracker.org
BitTorrentTracker PerecTracker.org
    
Регистрация  ·  Вход
 
 · 
Забыли пароль?

  • Сопротивление воздуха / La résistance de l\'air (Фред Гривуа / Fred Grivois) [2015, Франция, Бельгия, боевик, драма, HDRip] DVO (RG paravozik) + Original Fre

    Ответить на тему
     
    Автор Сообщение

    Light

    Создавать темы 29-Мар-2016 09:05

           

    [Цитировать]

    --Сопротивление воздуха
    La résistance de l'air
    -Страна: Франция, Бельгия
    Жанр: боевик, драма
    Год выпуска: 2015
    Продолжительность: 01:38:55-
    Перевод
    : Любительский (двухголосый закадровый) RG paravozik
    Cубтитры: нет
    Оригинальная аудиодорожка: французский-Режиссер: Фред Гривуа / Fred Grivois-В ролях: Реда Катеб, Людивин Санье, Йохан Хелденберг, Чеки Карио, Паскаль Демолон, Лор де Клермон-Тоннер, Сильви Дегрис, Юбер Сен-Макари, Патрис Гийен-Описание: Трогательная бельгийская кинокартина, созданная при поддержке французских режиссёров, знакомит нас с судьбой Винсента – умелого стрелка, который неоднократно становился чемпионом в соревнованиях по стрельбе из пневматической винтовки. Герой фильма «Сопротивление воздуха» ведёт спокойный образ жизни вместе со своей женой и дочерью. Но идиллия прекращается в тот момент, когда их семья начинает испытывать финансовые трудности. Новые проблемы заставляют мужчину пересмотреть своё отношение ко многим вещам. Он понимает, что должен сделать всё возможное, чтобы вернуть утраченное семейное равновесие. Когда Винсент познакомился на стрельбище с загадочным человеком по имени Рено, он уже пришёл к внутреннему согласию с самим собой и был уверен, что готов взяться за любую работу. Новый знакомый героя как раз собирается предложить ему прекрасную возможность заработать неплохие деньги. Для этого мужчина предлагает талантливому стрелку заключить с ним контракт, который станет для нуждающегося в деньгах Винсента прекрасным выходом из финансового кризиса. Герой незамедлительно соглашается, даже не подозревая, какой именно ценой ему придётся решать проблемы своей семьи...-Доп. информация: рекламы нет--Качество видео: HDRip
    Формат видео: AVI
    Видео: XviD, 720x304 (2.35:1), 24.000 fps, ~1 741 kbps avg, 0.331 bit/pixel
    Аудио: 48 kHz, AC3 Dolby Digital, 2/0 (L,R) ch, ~192 kbps Rus
    Аудио 2: 48 kHz, AC3 Dolby Digital, 2/0 (L,R) ch, ~192 kbps Fra-

    MediaInfo

    General
    Complete name : D:\Фильмы\Soprotivlenie.vozdyha.2015.HDRip.avi
    Format : AVI
    Format/Info : Audio Video Interleave
    File size : 1.47 GiB
    Duration : 1h 38mn
    Overall bit rate : 2 139 Kbps
    Writing application : VirtualDubMod 1.5.10.2 (build 2540/release)
    Writing library : VirtualDubMod build 2540/release
    Video
    ID : 0
    Format : MPEG-4 Visual
    Format profile : Advanced Simple@L5
    Format settings, BVOP : 2
    Format settings, QPel : No
    Format settings, GMC : No warppoints
    Format settings, Matrix : Default (MPEG)
    Codec ID : XVID
    Codec ID/Hint : XviD
    Duration : 1h 38mn
    Bit rate : 1 741 Kbps
    Width : 720 pixels
    Height : 304 pixels
    Display aspect ratio : 2.35:1
    Frame rate : 24.000 fps
    Color space : YUV
    Chroma subsampling : 4:2:0
    Bit depth : 8 bits
    Scan type : Progressive
    Compression mode : Lossy
    Bits/(Pixel*Frame) : 0.331
    Stream size : 1.20 GiB (81%)
    Writing library : XviD 1.2.1 (UTC 2008-12-04)
    Audio #1
    ID : 1
    Format : AC-3
    Format/Info : Audio Coding 3
    Mode extension : CM (complete main)
    Format settings, Endianness : Big
    Codec ID : 2000
    Duration : 1h 38mn
    Bit rate mode : Constant
    Bit rate : 192 Kbps
    Channel(s) : 2 channels
    Channel positions : Front: L R
    Sampling rate : 48.0 KHz
    Frame rate : 31.250 fps (1536 spf)
    Compression mode : Lossy
    Stream size : 135 MiB (9%)
    Alignment : Split accross interleaves
    Interleave, duration : 42 ms (1.00 video frame)
    Interleave, preload duratio : 500 ms
    Audio #2
    ID : 2
    Format : AC-3
    Format/Info : Audio Coding 3
    Mode extension : CM (complete main)
    Format settings, Endianness : Big
    Codec ID : 2000
    Duration : 1h 38mn
    Bit rate mode : Constant
    Bit rate : 192 Kbps
    Channel(s) : 2 channels
    Channel positions : Front: L R
    Sampling rate : 48.0 KHz
    Frame rate : 31.250 fps (1536 spf)
    Compression mode : Lossy
    Stream size : 135 MiB (9%)
    Alignment : Split accross interleaves
    Interleave, duration : 42 ms (1.00 video frame)
    Interleave, preload duratio : 500 ms

    -

    Скриншот c названием фильма

    Скриншоты



    -
    Скачать .torrent

    Скачать торрент-файл бесплатно и на максимальной скорости!

    Как скачивать? · Что такое торрент? · Рейтинг и ограничения

    !ВНИМАНИЕ!
    Сайт не распространяет и не хранит электронные версии произведений, а занимается лишь лишь предоставлением доступа к создаваемому пользователями каталогу ссылок на торрент-файлы, которые содержат только списки хеш-сумм, убедительная просьба с жалобами обращаться напрямую к пользователю. Файлы для обмена на трекере предоставлены пользователями сайта, и администрация не несёт ответственности за их содержание. Просьба не заливать файлы, защищенные авторскими правами, а также файлы нелегального содержания!


    _________________
    [Профиль] [ЛС]
    Показать сообщения:    
    Ответить на тему

    Текущее время: Сегодня, в 07:58

    Часовой пояс: GMT + 2



    Вы не можете начинать темы
    Вы не можете отвечать на сообщения
    Вы не можете редактировать свои сообщения
    Вы не можете удалять свои сообщения
    Вы не можете голосовать в опросах
    Вы не можете прикреплять файлы к сообщениям
    Вы не можете скачивать файлы