BitTorrentTracker PerecTracker.org
BitTorrentTracker PerecTracker.org
    
Регистрация  ·  Вход
 
 · 
Забыли пароль?

  • Счастливый брак / A Good Marriage (Питер Эскин / Peter Askin) [2014, США, триллер, драма, BDRemux 1080p] [ESP Transfer] DVO + 2x Sub (Rus, Eng) + Original Eng

    Ответить на тему
     
    Автор Сообщение

    Light

    Создавать темы 29-Мар-2016 00:54

           

    [Цитировать]

    Счастливый брак
    A Good Marriage
    Страна: США
    Жанр: триллер, драма
    Год выпуска: 2014
    Продолжительность: 01:42:24
    Перевод: Профессиональный (двухголосый закадровый)
    Cубтитры: русские (er45ty), английские
    Оригинальная аудиодорожка: английский
    -
    Режиссер: Питер Эскин / Peter Askin
    В ролях: Джоан Аллен, Энтони ЛаПалья, Стивен Лэнг, Кара Буоно, Кристен Коннолли, Майк О’Мэлли, Тео Стокман, Уилл Роджерс, Пан Банду, Терра Макинтош
    -
    Описание: Дарси и Боб Андерсоны - счастливая супружеская пара, прожившая более двадцати пяти лет вместе. Многие обыватели могли бы позавидовать крепости уз их счастливого брака, их преданным и нежным семейным отношениям. Боб работает обычным бухгалтером, иногда уезжает в командировки. Всё складывается хорошо. Но как-то в отсутствие мужа, Дарси случайно натыкается на вещи, хранящие в себе тайну супруга. Оказывается, что Дарси всю свою жизнь жила совместно с человеком, которого, совершенно не знает. То, что узнала Дарси, навсегда изменило её жизнь. Что теперь делать? Предстоит определиться, но выбор будет очень нелёгким и от правильности которого, возможно, зависит её жизнь...

    Тип релиза: BDRemux 1080p
    Контейнер: MKV
    Видео: MPEG-4 AVC / NTSC 16:9 / 1920x1080 (2,40:1) / 19998 kbps / 23,976 fps / 0.402 bit/pixel / High@L4.1
    Аудио 1: Russian / AC3 / 2.0 Ch / 48 kHz / 192 kbps / 16 bit / DVO
    Аудио 2: English / DTS-HD Master Audio / 5.1 Ch / 48 kHz / 1703 kbps / 16-bit (DTS Core: 5.1 Ch / 48 kHz / 1509 kbps / 16-bit) / Original
    Формат субтитров: softsub (SRT)
    Навигация по главам: есть

    MediaInfo

    Общее
    Уникальный идентификатор : 214015909327968764024348500851964772594 (0xA101F6FF6D326E8182D0A11A242800F2)
    Полное имя : N:\BDRemux 1080p\A Good Marriage.2014.BDRemux.1080p.mkv
    Формат : Matroska
    Версия формата : Version 4 / Version 2
    Размер файла : 15,7 Гбайт
    Продолжительность : 1 ч. 42 м.
    Режим общего битрейта : Переменный
    Общий поток : 21,9 Мбит/сек
    Дата кодирования : UTC 2016-03-25 02:30:25
    Программа кодирования : mkvmerge v8.9.0 ('Father Daughter') 64bit
    Библиотека кодирования : libebml v1.3.3 + libmatroska v1.4.4
    Видео
    Идентификатор : 1
    Формат : AVC
    Формат/Информация : Advanced Video Codec
    Профиль формата : High@L4.1
    Параметр CABAC формата : Да
    Параметр ReFrames формата : 4 кадра
    Параметр GOP формата : M=3, N=24
    Идентификатор кодека : V_MPEG4/ISO/AVC
    Продолжительность : 1 ч. 42 м.
    Вид битрейта : Переменный
    Битрейт : 20,0 Мбит/сек
    Максимальный битрейт : 35,0 Мбит/сек
    Ширина : 1920 пикселей
    Высота : 1080 пикселей
    Соотношение сторон : 16:9
    Режим частоты кадров : Постоянный
    Частота кадров : 23,976 (24000/1001) кадра/сек
    Стандарт вещания : NTSC
    Цветовое пространство : YUV
    Субдискретизация насыщенности : 4:2:0
    Битовая глубина : 8 бит
    Тип развёртки : Прогрессивная
    Бит/(Пиксели*Кадры) : 0.402
    Размер потока : 14,3 Гбайт (91%)
    Язык : English
    Default : Да
    Forced : Нет
    Цветовой диапазон : Limited
    Основные цвета : BT.709
    Характеристики трансфера : BT.709
    Коэффициенты матрицы : BT.709
    Аудио #1
    Идентификатор : 2
    Формат : AC-3
    Формат/Информация : Audio Coding 3
    Расширение режима : CM (complete main)
    Параметр Endianness формата : Big
    Идентификатор кодека : A_AC3
    Продолжительность : 1 ч. 41 м.
    Вид битрейта : Постоянный
    Битрейт : 192 Кбит/сек
    Каналы : 2 канала
    Расположение каналов : Front: L R
    Частота : 48,0 КГц
    Частота кадров : 31,250 кадров/сек (1536 spf)
    Метод сжатия : С потерями
    Размер потока : 140 Мбайт (1%)
    Заголовок : DVO
    Язык : Russian
    Default : Да
    Forced : Нет
    Аудио #2
    Идентификатор : 3
    Формат : DTS
    Формат/Информация : Digital Theater Systems
    Профиль формата : MA / Core
    Режим : 16
    Параметр Endianness формата : Big
    Идентификатор кодека : A_DTS
    Продолжительность : 1 ч. 42 м.
    Вид битрейта : Переменный / Постоянный
    Битрейт : 1703 Кбит/сек / 1509 Кбит/сек
    Каналы : 6 каналов
    Расположение каналов : Front: L C R, Side: L R, LFE
    Частота : 48,0 КГц
    Частота кадров : 93,750 кадра/сек (512 spf)
    Битовая глубина : 16 бит
    Метод сжатия : Без потерь / Lossy
    Размер потока : 1,22 Гбайт (8%)
    Заголовок : Original
    Язык : English
    Default : Нет
    Forced : Нет
    Текст #1
    Идентификатор : 4
    Формат : UTF-8
    Идентификатор кодека : S_TEXT/UTF8
    Идентификатор кодека/Информация : UTF-8 Plain Text
    Продолжительность : 1 ч. 37 м.
    Битрейт : 57 бит/сек
    Count of elements : 1036
    Размер потока : 41,4 Кбайт (0%)
    Заголовок : er45ty
    Язык : Russian
    Default : Нет
    Forced : Нет
    Текст #2
    Идентификатор : 5
    Формат : UTF-8
    Идентификатор кодека : S_TEXT/UTF8
    Идентификатор кодека/Информация : UTF-8 Plain Text
    Продолжительность : 1 ч. 40 м.
    Битрейт : 40 бит/сек
    Count of elements : 804
    Размер потока : 30,0 Кбайт (0%)
    Заголовок : Original
    Язык : English
    Default : Нет
    Forced : Нет
    Меню
    00:00:00.000 : en:00:00:00.000
    00:12:01.721 : en:00:12:01.721
    00:24:40.521 : en:00:24:40.521
    00:34:38.493 : en:00:34:38.493
    00:44:23.202 : en:00:44:23.202
    00:55:32.037 : en:00:55:32.037
    01:06:26.858 : en:01:06:26.858
    01:10:41.446 : en:01:10:41.446
    01:19:31.308 : en:01:19:31.308
    01:28:49.699 : en:01:28:49.699

    Скриншоты

    Скачать .torrent

    Скачать торрент-файл бесплатно и на максимальной скорости!

    Как скачивать? · Что такое торрент? · Рейтинг и ограничения

    !ВНИМАНИЕ!
    Сайт не распространяет и не хранит электронные версии произведений, а занимается лишь лишь предоставлением доступа к создаваемому пользователями каталогу ссылок на торрент-файлы, которые содержат только списки хеш-сумм, убедительная просьба с жалобами обращаться напрямую к пользователю. Файлы для обмена на трекере предоставлены пользователями сайта, и администрация не несёт ответственности за их содержание. Просьба не заливать файлы, защищенные авторскими правами, а также файлы нелегального содержания!


    _________________
    [Профиль] [ЛС]
    Показать сообщения:    
    Ответить на тему

    Текущее время: Сегодня, в 22:02

    Часовой пояс: GMT + 2



    Вы не можете начинать темы
    Вы не можете отвечать на сообщения
    Вы не можете редактировать свои сообщения
    Вы не можете удалять свои сообщения
    Вы не можете голосовать в опросах
    Вы не можете прикреплять файлы к сообщениям
    Вы не можете скачивать файлы