BitTorrentTracker PerecTracker.org
BitTorrentTracker PerecTracker.org
    
Регистрация  ·  Вход
 
 · 
Забыли пароль?

  • Как заниматься любовью по-английски / How to Make Love Like an Englishman (Том Вон / Tom Vaughan) [2014, США, Великобритания, мелодрама, комедия, BDRip 1080p] Dub (IPTV) + Sub Eng + Original Eng

    Ответить на тему
     
    Автор Сообщение

    Light

    Создавать темы 29-Мар-2016 00:54

           

    [Цитировать]

    Как заниматься любовью по-английски / How to Make Love Like an Englishman
    Страна: США, Великобритания
    Жанр: мелодрама, комедия
    Год выпуска: 2014
    Продолжительность: 01:39:22
    Перевод: Профессиональный (дублированный) IPTV
    Cубтитры: английские
    Оригинальная аудиодорожка: английский-Режиссер: Том Вон / Tom Vaughan-В ролях: Пирс Броснан, Сальма Хайек, Джессика Альба, Малкольм МакДауэлл, Дункан Джойнер, Бен МакКензи, Меррин Данги, Фред Меламед, Иван Сергей, Ломбардо Бойяр-Описание: Сюжет фильма вращается вокруг профессора Кембриджского университета, избравшего в качестве своего девиза изречение уайльдовского лорда Генри из «Портрета Дориана Грея»: «Единственный способ отделаться от искушения - уступить ему». Однажды профессор решает завязать с бесконечным потоком романов и завести семью с молодой американской подружкой - раз уж она внезапно от него забеременела. Однако он и не представлял, как сложится их семейная жизнь.-Релиз:
    by lexxblack-
    -Качество видео: BDRip
    Формат видео: MKV
    Видео: MPEG-4 AVC / 1920x804 / 14.5 Mbps (crf) / 23.976 fps / High Profile 4.1
    Аудио 1: Russian: AC3 5.1 ch / 384 kbps / 48 kHz |Дубляж, IPTV|
    Аудио 2: English: AC3 5.1 ch / 640 kbps / 48 kHz |Original|-Сэмпл-Цитата:
    Цитата:

    • Сохранены оригинальные главы как на Blu-ray.

    MediaInfo

    Format                      : Matroska
    Format version              : Version 4 / Version 2
    File size                   : 11.0 GiB
    Duration                    : 1h 39mn
    Overall bit rate            : 15.9 Mbps
    Movie name                  : How To Make Love Like An Englishman (2014) - Release for BLUEBIRD by lexxblack
    Encoded date                : UTC 2016-03-24 13:07:24
    Writing application         : mkvmerge v8.9.0 ('Father Daughter') 64bit
    Writing library             : libebml v1.3.3 + libmatroska v1.4.4
    Attachements                : cover.png / x264_log.txt
    DURATION                    : 01:39:22.112000000
    NUMBER_OF_FRAMES            : 186316
    NUMBER_OF_BYTES             : 286181376
    _STATISTICS_WRITING_APP     : mkvmerge v8.9.0 ('Father Daughter') 64bit
    _STATISTICS_WRITING_DATE_UT : 2016-03-24 13:07:24
    _STATISTICS_TAGS            : BPS DURATION NUMBER_OF_FRAMES NUMBER_OF_BYTES
    Video
    ID                          : 1
    Format                      : AVC
    Format/Info                 : Advanced Video Codec
    Format profile              : High@L4.1
    Format settings, CABAC      : Yes
    Format settings, ReFrames   : 5 frames
    Codec ID                    : V_MPEG4/ISO/AVC
    Duration                    : 1h 39mn
    Bit rate                    : 14.5 Mbps
    Width                       : 1 920 pixels
    Height                      : 804 pixels
    Display aspect ratio        : 2.40:1
    Frame rate mode             : Constant
    Frame rate                  : 23.976 fps
    Color space                 : YUV
    Chroma subsampling          : 4:2:0
    Bit depth                   : 8 bits
    Scan type                   : Progressive
    Bits/(Pixel*Frame)          : 0.392
    Stream size                 : 10.1 GiB (92%)
    Title                       : How To Make Love Like An Englishman (2014) - Release for BLUEBIRD by lexxblack
    Writing library             : x264 core 148 r2638 7599210
    Encoding settings           : cabac=1 / ref=5 / deblock=1:-3:-3 / analyse=0x3:0x133 / me=umh / subme=10 / psy=1 / psy_rd=0.92:0.00 / mixed_ref=1 / me_range=24 / chroma_me=1 / trellis=2 / 8x8dct=1 / cqm=0 / deadzone=21,11 / fast_pskip=0 / chroma_qp_offset=-2 / threads=12 / lookahead_threads=2 / sliced_threads=0 / nr=0 / decimate=0 / interlaced=0 / bluray_compat=0 / constrained_intra=0 / bframes=9 / b_pyramid=2 / b_adapt=2 / b_bias=0 / direct=3 / weightb=1 / open_gop=0 / weightp=2 / keyint=250 / keyint_min=23 / scenecut=40 / intra_refresh=0 / rc_lookahead=60 / rc=crf / mbtree=0 / crf=16.3 / qcomp=0.65 / qpmin=0 / qpmax=69 / qpstep=4 / vbv_maxrate=62500 / vbv_bufsize=78125 / crf_max=0.0 / nal_hrd=none / filler=0 / ip_ratio=1.30 / pb_ratio=1.20 / aq=3:0.83
    Language                    : English
    Default                     : Yes
    Forced                      : Yes
    Color range                 : Limited
    Matrix coefficients         : BT.709
    DURATION                    : 01:39:22.290000000
    NUMBER_OF_FRAMES            : 142952
    NUMBER_OF_BYTES             : 11057712180
    _STATISTICS_WRITING_APP     : mkvmerge v8.9.0 ('Father Daughter') 64bit
    _STATISTICS_WRITING_DATE_UT : 2016-03-24 13:07:24
    _STATISTICS_TAGS            : BPS DURATION NUMBER_OF_FRAMES NUMBER_OF_BYTES
    Audio #1
    ID                          : 2
    Format                      : AC-3
    Format/Info                 : Audio Coding 3
    Mode extension              : CM (complete main)
    Format settings, Endianness : Big
    Codec ID                    : A_AC3
    Duration                    : 1h 39mn
    Bit rate mode               : Constant
    Bit rate                    : 384 Kbps
    Channel(s)                  : 6 channels
    Channel positions           : Front: L C R, Side: L R, LFE
    Sampling rate               : 48.0 KHz
    Compression mode            : Lossy
    Stream size                 : 273 MiB (2%)
    Title                       : AC3 5.1 @ 384 kbps - Dub IPTV
    Language                    : Russian
    Default                     : Yes
    Forced                      : Yes
    Audio #2
    ID                          : 3
    Format                      : AC-3
    Format/Info                 : Audio Coding 3
    Mode extension              : CM (complete main)
    Format settings, Endianness : Big
    Codec ID                    : A_AC3
    Duration                    : 1h 39mn
    Bit rate mode               : Constant
    Bit rate                    : 640 Kbps
    Channel(s)                  : 6 channels
    Channel positions           : Front: L C R, Side: L R, LFE
    Sampling rate               : 48.0 KHz
    Compression mode            : Lossy
    Stream size                 : 455 MiB (4%)
    Title                       : AC3 5.1 @ 640 kbps - Original
    Language                    : English
    Default                     : No
    Forced                      : No
    Text #1
    ID                          : 4
    Format                      : UTF-8
    Codec ID                    : S_TEXT/UTF8
    Codec ID/Info               : UTF-8 Plain Text
    Title                       : full
    Language                    : English
    Default                     : No
    Forced                      : No
    Text #2
    ID                          : 5
    Format                      : UTF-8
    Codec ID                    : S_TEXT/UTF8
    Codec ID/Info               : UTF-8 Plain Text
    Title                       : SDH
    Language                    : English
    Default                     : No
    Forced                      : No
    Menu
    00:00:00.000                : en:Chapter 01
    00:14:50.723                : en:Chapter 02
    00:28:14.651                : en:Chapter 03
    00:38:55.792                : en:Chapter 04
    00:54:19.006                : en:Chapter 05
    01:09:42.553                : en:Chapter 06
    01:18:53.938                : en:Chapter 07
    01:33:27.852                : en:Chapter 08

    Скриншоты

    Скачать .torrent

    Скачать торрент-файл бесплатно и на максимальной скорости!

    Как скачивать? · Что такое торрент? · Рейтинг и ограничения

    !ВНИМАНИЕ!
    Сайт не распространяет и не хранит электронные версии произведений, а занимается лишь лишь предоставлением доступа к создаваемому пользователями каталогу ссылок на торрент-файлы, которые содержат только списки хеш-сумм, убедительная просьба с жалобами обращаться напрямую к пользователю. Файлы для обмена на трекере предоставлены пользователями сайта, и администрация не несёт ответственности за их содержание. Просьба не заливать файлы, защищенные авторскими правами, а также файлы нелегального содержания!


    _________________
    [Профиль] [ЛС]
    Показать сообщения:    
    Ответить на тему

    Текущее время: Сегодня, в 10:11

    Часовой пояс: GMT + 2



    Вы не можете начинать темы
    Вы не можете отвечать на сообщения
    Вы не можете редактировать свои сообщения
    Вы не можете удалять свои сообщения
    Вы не можете голосовать в опросах
    Вы не можете прикреплять файлы к сообщениям
    Вы не можете скачивать файлы