BitTorrentTracker PerecTracker.org
BitTorrentTracker PerecTracker.org
    
Регистрация  ·  Вход
 
 · 
Забыли пароль?

  • Девушка из Дании / The Danish Girl (Том Хупер / Tom Hooper) [2015, Великобритания, Германия, США, драма, биография, BDRip 1080p] Dub (iTunes) + Sub Rus Eng + Original Eng

    Ответить на тему
     
    Автор Сообщение

    Light

    Создавать темы 29-Мар-2016 00:54

           

    [Цитировать]

    -Девушка из Дании
    The Danish Girl
    -Страна: Великобритания, Германия, США
    Студия: Artmis Productions, Pretty Pictures, ReVision Pictures
    Жанр: драма, биография
    Год выпуска: 2015
    Продолжительность: 01:59:38-Перевод: Профессиональный (дублированный) iTunes
    Cубтитры: русские, английские вшитые, отключаемые
    Оригинальная аудиодорожка: английский-Режиссер: Том Хупер / Tom Hooper-В ролях: Эдди Редмэйн, Алисия Викандер, Туссе Сильберг, Адриан Шиллер, Эмбер Хёрд Депп, Эмиральд Феннел, Генри Петтигрю, Клаус Буе, Питер Крэг, Анджела Каррен-Описание: Действие происходит в 1920-х годах в Копенгагене. Иллюстратор и художник Герда Вегенер просит своего мужа Эйнара Вегенера попозировать в качестве женской модели. Портреты приобретают популярность и Герда продолжает писать картины со своим мужем в качестве женщины. Эйнару нравится собственная женская внешность и он начинает жить под именем Лили Эльбе. Впоследствии Эльбе становится первым человеком, прошедшим хирургическую коррекцию пола.--Тип релиза: BDRip 1080p
    Контейнер: MKV-Видео: MPEG-4 AVC, 1920 X 1040 (2.35:1), 23.976 fps, L4.1 High @ 12000 Kbps
    Аудио: 48 kHz, AC3 Dolby Digital, 3/2 (L,C,R,l,r) + LFE ch, ~384.00 kbps avg- Русский
    Аудио 2: 48 kHz, DTS, 1509 kb/s (3/2 (L,C,R,l,r) + LFE ch), - Английский
    Формат субтитров: softsub (SRT)-

    MediaInfo

    General
    Unique ID : 247718815812801640291817871561597096860 (0xBA5CE894848FE623AFE6F6B0548F939C)
    Complete name : D:\Фильмы\The.Danish.Girl.2015.BDRip.1080p..mkv
    Format : Matroska
    Format version : Version 2
    File size : 11.8 GiB
    Duration : 1h 59mn
    Overall bit rate : 14.1 Mbps
    Encoded date : UTC 2016-03-23 18:51:58
    Writing application : mkvmerge v7.9.0 ('Birds') 64bit
    Writing library : libebml v1.3.1 + libmatroska v1.4.2
    Video
    ID : 1
    Format : AVC
    Format/Info : Advanced Video Codec
    Format profile : High@L4.1
    Format settings, CABAC : Yes
    Format settings, ReFrames : 4 frames
    Codec ID : V_MPEG4/ISO/AVC
    Duration : 1h 59mn
    Bit rate : 12.0 Mbps
    Width : 1 920 pixels
    Height : 1 040 pixels
    Display aspect ratio : 1.85:1
    Frame rate mode : Constant
    Frame rate : 23.976 (24000/1001) fps
    Color space : YUV
    Chroma subsampling : 4:2:0
    Bit depth : 8 bits
    Scan type : Progressive
    Bits/(Pixel*Frame) : 0.250
    Stream size : 9.99 GiB (85%)
    Writing library : x264 core 148 r2665 a01e339
    Encoding settings : cabac=1 / ref=4 / deblock=1:-3:-3 / analyse=0x3:0x133 / me=umh / subme=10 / psy=1 / psy_rd=1.00:0.00 / mixed_ref=1 / me_range=24 / chroma_me=1 / trellis=2 / 8x8dct=1 / cqm=0 / deadzone=21,11 / fast_pskip=1 / chroma_qp_offset=-2 / threads=6 / lookahead_threads=1 / sliced_threads=0 / nr=0 / decimate=1 / interlaced=0 / bluray_compat=0 / constrained_intra=0 / bframes=8 / b_pyramid=2 / b_adapt=2 / b_bias=0 / direct=3 / weightb=1 / open_gop=0 / weightp=2 / keyint=250 / keyint_min=25 / scenecut=40 / intra_refresh=0 / rc_lookahead=60 / rc=crf / mbtree=0 / crf=16.5 / qcomp=0.60 / qpmin=0 / qpmax=69 / qpstep=4 / vbv_maxrate=62500 / vbv_bufsize=78125 / crf_max=0.0 / nal_hrd=none / filler=0 / ip_ratio=1.40 / pb_ratio=1.30 / aq=1:0.80
    Default : Yes
    Forced : No
    Audio #1
    ID : 2
    Format : AC-3
    Format/Info : Audio Coding 3
    Mode extension : CM (complete main)
    Format settings, Endianness : Big
    Codec ID : A_AC3
    Duration : 1h 59mn
    Bit rate mode : Constant
    Bit rate : 384 Kbps
    Channel(s) : 6 channels
    Channel positions : Front: L C R, Side: L R, LFE
    Sampling rate : 48.0 KHz
    Frame rate : 31.250 fps (1536 spf)
    Compression mode : Lossy
    Stream size : 329 MiB (3%)
    Language : Russian
    Default : Yes
    Forced : No
    Audio #2
    ID : 3
    Format : DTS
    Format/Info : Digital Theater Systems
    Mode : 16
    Format settings, Endianness : Big
    Codec ID : A_DTS
    Duration : 1h 59mn
    Bit rate mode : Constant
    Bit rate : 1 509 Kbps
    Channel(s) : 6 channels
    Channel positions : Front: L C R, Side: L R, LFE
    Sampling rate : 48.0 KHz
    Frame rate : 93.750 fps (512 spf)
    Bit depth : 24 bits
    Compression mode : Lossy
    Stream size : 1.26 GiB (11%)
    Language : English
    Default : No
    Forced : No
    Text #1
    ID : 4
    Format : UTF-8
    Codec ID : S_TEXT/UTF8
    Codec ID/Info : UTF-8 Plain Text
    Language : Russian
    Default : No
    Forced : No
    Text #2
    ID : 5
    Format : UTF-8
    Codec ID : S_TEXT/UTF8
    Codec ID/Info : UTF-8 Plain Text
    Title : English SDH
    Language : English
    Default : No
    Forced : No
    Text #3
    ID : 6
    Format : UTF-8
    Codec ID : S_TEXT/UTF8
    Codec ID/Info : UTF-8 Plain Text
    Language : English
    Default : No
    Forced : No
    Menu
    00:00:00.000 : en:00:00:00.000
    00:06:45.905 : en:00:06:45.905
    00:13:42.280 : en:00:13:42.280
    00:17:45.898 : en:00:17:45.898
    00:21:26.535 : en:00:21:26.535
    00:26:36.094 : en:00:26:36.094
    00:34:03.625 : en:00:34:03.625
    00:40:21.544 : en:00:40:21.544
    00:47:31.974 : en:00:47:31.974
    00:53:03.889 : en:00:53:03.889
    00:58:06.483 : en:00:58:06.483
    01:06:50.757 : en:01:06:50.757
    01:10:18.464 : en:01:10:18.464
    01:15:03.999 : en:01:15:03.999
    01:22:16.265 : en:01:22:16.265
    01:27:29.077 : en:01:27:29.077
    01:33:22.263 : en:01:33:22.263
    01:41:36.924 : en:01:41:36.924
    01:47:23.228 : en:01:47:23.228
    01:52:44.216 : en:01:52:44.216

    -

    Скриншоты

    -
    Скачать .torrent

    Скачать торрент-файл бесплатно и на максимальной скорости!

    Как скачивать? · Что такое торрент? · Рейтинг и ограничения

    !ВНИМАНИЕ!
    Сайт не распространяет и не хранит электронные версии произведений, а занимается лишь лишь предоставлением доступа к создаваемому пользователями каталогу ссылок на торрент-файлы, которые содержат только списки хеш-сумм, убедительная просьба с жалобами обращаться напрямую к пользователю. Файлы для обмена на трекере предоставлены пользователями сайта, и администрация не несёт ответственности за их содержание. Просьба не заливать файлы, защищенные авторскими правами, а также файлы нелегального содержания!


    _________________
    [Профиль] [ЛС]
    Показать сообщения:    
    Ответить на тему

    Текущее время: Сегодня, в 16:12

    Часовой пояс: GMT + 2



    Вы не можете начинать темы
    Вы не можете отвечать на сообщения
    Вы не можете редактировать свои сообщения
    Вы не можете удалять свои сообщения
    Вы не можете голосовать в опросах
    Вы не можете прикреплять файлы к сообщениям
    Вы не можете скачивать файлы