BitTorrentTracker PerecTracker.org
BitTorrentTracker PerecTracker.org
    
Регистрация  ·  Вход
 
 · 
Забыли пароль?

  • Нация фастфуда / Fast Food Nation (Ричард Линклэйтер / Richard Linklater) [2006, США, драма, WEB-DL 720p] MVO + Sub Eng, Rus + Original Eng

    Ответить на тему
     
    Автор Сообщение

    Light

    Создавать темы 29-Мар-2016 00:54

           

    [Цитировать]

    Нация фастфуда / Fast Food Nation
    -Страна: США
    Жанр: драма
    Год выпуска: 2006
    Продолжительность: 01:53:07-Перевод: Профессиональный (многоголосый, закадровый)
    Cубтитры: английские, русские
    Оригинальная аудиодорожка: английский-Режиссер: Ричард Линклэйтер / Richard Linklater-В ролях: Каталина Сандино Морено, Патришиа Аркетт, Итан Хоук, Грег Киннер, Крис Кристофферсон, Луис Гусман, Аврил Лавин, Митч Бэйкер, Бобби Каннавале, Эшли Джонсон, Исай Моралес, Лу Тэйлор Пуччи, Ана Клаудиа Таланкон, Уилмер Валдеррама-Описание:
    Всеамериканская любовь к гамбургерам через цепь историй: от молодой пары имигрантов с мясокомбината, главного поставщика и подростков-клерков из фастфуда до корпоративного начальства, которое неожиданно узнает шокирующую новость.-Сэмпл: Скачать-Тип релиза: WEB-DL 720p
    Контейнер: MKV-Видео: 1280x720 (16:9); 3 955 Kbps; 23.976 fps; 0.179 bpp
    Аудио 1: Russian; AC3; 48.0 KHz; 6ch; 384 Kbps
    Аудио 2: English; AC3; 48.0 KHz; 6ch; 384 Kbps

    MediaInfo

    Format : Matroska
    Format version : Version 4 / Version 2
    File size : 3.81 GiB
    Duration : 1h 53mn
    Overall bit rate : 4 819 Kbps
    Encoded date : UTC 2015-06-12 06:55:15
    Writing application : mkvmerge v7.2.0 ('On Every Street') 64bit built on Sep 13 2014 15:52:10
    Writing library : libebml v1.3.0 + libmatroska v1.4.1
    Attachements : poster.jpg
    _STATISTICS_WRITING_APP : mkvmerge v7.2.0 ('On Every Street') 64bit built on Sep 13 2014 15:52:10
    _STATISTICS_WRITING_DATE_UT : 2015-06-12 06:55:15
    _STATISTICS_TAGS : BPS DURATION NUMBER_OF_FRAMES NUMBER_OF_BYTES
    DURATION : 01:53:05.600000000
    NUMBER_OF_FRAMES : 212050
    NUMBER_OF_BYTES : 325708800
    Video
    ID : 1
    Format : AVC
    Format/Info : Advanced Video Codec
    Format profile : High@L3.1
    Format settings, CABAC : No
    Format settings, ReFrames : 2 frames
    Codec ID : V_MPEG4/ISO/AVC
    Duration : 1h 53mn
    Bit rate : 3 955 Kbps
    Width : 1 280 pixels
    Height : 720 pixels
    Display aspect ratio : 16:9
    Frame rate mode : Constant
    Frame rate : 23.976 fps
    Color space : YUV
    Chroma subsampling : 4:2:0
    Bit depth : 8 bits
    Scan type : Progressive
    Bits/(Pixel*Frame) : 0.179
    Stream size : 3.12 GiB (82%)
    Language : English
    Default : Yes
    Forced : No
    Color range : Limited
    Color primaries : BT.709
    Transfer characteristics : BT.709
    Matrix coefficients : BT.709
    Audio #1
    ID : 2
    Format : AC-3
    Format/Info : Audio Coding 3
    Mode extension : CM (complete main)
    Format settings, Endianness : Big
    Codec ID : A_AC3
    Duration : 1h 53mn
    Bit rate mode : Constant
    Bit rate : 384 Kbps
    Channel(s) : 6 channels
    Channel positions : Front: L C R, Side: L R, LFE
    Sampling rate : 48.0 KHz
    Compression mode : Lossy
    Stream size : 311 MiB (8%)
    Title : MVO
    Language : Russian
    Default : Yes
    Forced : No
    Audio #2
    ID : 3
    Format : AC-3
    Format/Info : Audio Coding 3
    Mode extension : CM (complete main)
    Format settings, Endianness : Big
    Codec ID : A_AC3
    Duration : 1h 53mn
    Bit rate mode : Constant
    Bit rate : 384 Kbps
    Channel(s) : 6 channels
    Channel positions : Front: L C R, Side: L R, LFE
    Sampling rate : 48.0 KHz
    Compression mode : Lossy
    Stream size : 311 MiB (8%)
    Language : English
    Default : No
    Forced : No
    Text #1
    ID : 4
    Format : UTF-8
    Codec ID : S_TEXT/UTF8
    Codec ID/Info : UTF-8 Plain Text
    Language : Russian
    Default : No
    Forced : No
    Text #2
    ID : 5
    Format : UTF-8
    Codec ID : S_TEXT/UTF8
    Codec ID/Info : UTF-8 Plain Text
    Language : English
    Default : No
    Forced : No
    Menu
    00:00:00.000 : en:Main Titles/Fast Food
    00:01:47.000 : en:The Coyote
    00:03:08.000 : en:Marketing Issues
    00:06:54.000 : en:Marketing 101
    00:09:18.000 : en:Cody, Colorado
    00:18:52.000 : en:Customer Service
    00:21:14.000 : en:Wages
    00:27:30.000 : en:Plant Tour
    00:29:54.000 : en:Banana Republic…Not
    00:31:11.000 : en:Rumors
    00:37:03.000 : en:Housekeeping
    00:38:48.000 : en:Rudy
    00:45:49.000 : en:Rats
    00:48:34.000 : en:The Big Picture
    00:56:31.000 : en:Recommendations
    00:59:20.000 : en:Life Goes On
    01:05:06.000 : en:Follow Your Passion
    01:09:41.000 : en:Do Something
    01:13:18.000 : en:Mike's Girls
    01:18:03.000 : en:Mickeys Is Watching You
    01:20:28.000 : en:Big Lies
    01:24:05.000 : en:Accident on the Line
    01:28:15.000 : en:Student Activism
    01:32:30.000 : en:A Favor
    01:35:33.000 : en:Cattle Liberation
    01:38:35.000 : en:First Day on the Job
    01:41:12.000 : en:The Kill Floor
    01:44:28.000 : en:Bienvenidos/End Titles

    Скриншоты

    Скачать .torrent

    Скачать торрент-файл бесплатно и на максимальной скорости!

    Как скачивать? · Что такое торрент? · Рейтинг и ограничения

    !ВНИМАНИЕ!
    Сайт не распространяет и не хранит электронные версии произведений, а занимается лишь лишь предоставлением доступа к создаваемому пользователями каталогу ссылок на торрент-файлы, которые содержат только списки хеш-сумм, убедительная просьба с жалобами обращаться напрямую к пользователю. Файлы для обмена на трекере предоставлены пользователями сайта, и администрация не несёт ответственности за их содержание. Просьба не заливать файлы, защищенные авторскими правами, а также файлы нелегального содержания!


    _________________
    [Профиль] [ЛС]
    Показать сообщения:    
    Ответить на тему

    Текущее время: Сегодня, в 06:08

    Часовой пояс: GMT + 2



    Вы не можете начинать темы
    Вы не можете отвечать на сообщения
    Вы не можете редактировать свои сообщения
    Вы не можете удалять свои сообщения
    Вы не можете голосовать в опросах
    Вы не можете прикреплять файлы к сообщениям
    Вы не можете скачивать файлы