BitTorrentTracker PerecTracker.org
BitTorrentTracker PerecTracker.org
    
Регистрация  ·  Вход
 
 · 
Забыли пароль?

  • Бэтмен против Супермена: На заре справедливости / Batman v Superman: Dawn of Justice (Зак Снайдер / Zack Snyder) [2016, США, фантастика, боевик, CAMRip] [Proper]

    Ответить на тему
     
    Автор Сообщение

    rechyn

    Создавать темы 28-Мар-2016 21:25

           

    [Цитировать]

    Бэтмен против Супермена: На заре справедливости / Batman v Superman: Dawn of Justice -Год выпуска: 2016
    Производство: США / DC Entertainment, Dune Entertainment, Syncopy
    Жанр: фантастика, боевик
    Продолжительность: 02:22:33
    Перевод: Дублированный
    Режиссер: Зак Снайдер
    Актеры: Генри Кавилл, Бен Аффлек, Галь Гадот, Джейсон Момоа, Эми Адамс, Джесси Айзенберг, Джена Мэлоун, Эзра Миллер, Дайан Лэйн, Джереми Айронс
    Описание: Опасаясь, что действия богоподобного супергероя так и останутся бесконтрольными, грозный и могущественный страж Готэм Сити бросает вызов самому почитаемому в наши дни спасителю Метрополиса, в то время как весь остальной мир решает, какой герой ему по-настоящему нужен. И пока Бэтмен и Супермен пребывают в состоянии войны друг с другом, возникает новая угроза, которая ставит человечество под самую большую опасность, с которой оно когда-либо сталкивалось.

    Возраст: 16+ (зрителям, достигшим 16 лет)
    Рейтинг MPAA: PG-13 (детям до 13 лет просмотр нежелателен)
    Дата мировой премьеры: 23 марта 2016
    Дата российской премьеры: 25 марта 2016

    Качество видео: CAMRip Семпл
    Реклама: Присутствуют вставки голосовой и текстовой рекламы.
    Видео: MPEG4, XviD, 704x304 (2.35:1), 25.000 fps, 1 234 Kbps (0.231 bit/pixel)
    Аудио: AC-3, 48.0 KHz, 2 ch, 128 Kbps, CBR

    MediaInfo

    Формат                                   : AVI
    Формат/Информация                        : Audio Video Interleave
    Размер файла                             : 1,37 Гбайт
    Продолжительность                        : 2 ч. 22 м.
    Общий поток                              : 1371 Кбит/сек
    Программа кодирования                    : VirtualDubMod 1.5.10.2 (build 2542/release)
    Библиотека кодирования                   : VirtualDubMod build 2542/release
    Видео
    Идентификатор                            : 0
    Формат                                   : MPEG-4 Visual
    Профиль формата                          : Advanced Simple@L5
    Параметр BVOP формата                    : 2
    Параметр QPel формата                    : Нет
    Параметр GMC формата                     : Без точки перехода
    Параметр матрицы формата                 : Выборочная
    Идентификатор кодека                     : XVID
    Идентификатор кодека/Подсказка           : XviD
    Продолжительность                        : 2 ч. 22 м.
    Битрейт                                  : 1234 Кбит/сек
    Ширина                                   : 704 пикселя
    Высота                                   : 304 пикселя
    Соотношение сторон                       : 2,35:1
    Частота кадров                           : 25,000 кадров/сек
    Цветовое пространство                    : YUV
    Субдискретизация насыщенности            : 4:2:0
    Битовая глубина                          : 8 бит
    Тип развёртки                            : Прогрессивная
    Метод сжатия                             : С потерями
    Бит/(Пиксели*Кадры)                      : 0.231
    Размер потока                            : 1,23 Гбайт (90%)
    Библиотека кодирования                   : XviD 1.2.1 (UTC 2008-12-04)
    Аудио
    Идентификатор                            : 1
    Формат                                   : AC-3
    Формат/Информация                        : Audio Coding 3
    Расширение режима                        : CM (complete main)
    Параметр Endianness формата              : Big
    Идентификатор кодека                     : 2000
    Продолжительность                        : 2 ч. 22 м.
    Вид битрейта                             : Постоянный
    Битрейт                                  : 128 Кбит/сек
    Каналы                                   : 2 канала
    Расположение каналов                     : Front: L R
    Частота                                  : 48,0 КГц
    Битовая глубина                          : 16 бит
    Метод сжатия                             : С потерями
    Задержка видео                           : 8 мс.
    Размер потока                            : 131 Мбайт (9%)
    Выравнивание                             : Разделение по промежуткам
    Продолжительность промежутка             : 40  мс. (1,00 видеокадр)
    Время предзагрузки промежутка            : 500  мс.

    Дополнительная информация

    • В основу фильма легли комиксы «Batman: The Dark Knight Returns» (Бэтмен: Возвращение Темного рыцаря), «Kingdom Come» (Второе пришествие) и «Batman: Noel» (Бэтмен: Рождество).
    • Рабочим названием фильма было «Сейдж и Майло» (Sage & Milo).
    • Название фильма является отсылкой к «Лиге справедливости».
    • Работу над фильмом начал Эндрю Кевин Уокер еще в августе 2001 года. Вольфганг Петерсен рассматривался на место режиссера, а Акива Голдсман — на место сценариста. По сценарию Голдсмана Джокер убивал невесту Брюса Уэйна, после чего Уэйн начинал буйствовать на почве мести, и в результате у них развивался конфликт с Суперменом, который пытался его остановить. Затем проект был заморожен, но в фильме «Я — легенда» (2007), сценаристом которого является Голдсман, в открывающей сцене, на стене одного из зданий зрители заметили плакат — знак Супермена на фоне знака Бэтмена.
    • Ранее Бен Аффлек и Дайан Лэйн вместе снимались в фильме «Смерть супермена» (2006), где Аффлек сыграл Джорджа Ривза, актера известного по роли Супермена на телевидении.
    • Джош Бролин, Райан Гослинг, Мэттью Гуд, Ричард Армитедж, Макс Мартини, Арми Хаммер, Дженсен Эклс и Джо Манганьелло рассматривались на роль Бэтмена, прежде чем ее получил Бен Аффлек.
    • Сразу после того как выяснилось, что роль Бэтмена досталась Бену Аффлеку, он стал ежедневно проводить по два часа в тренажерном зале, чтобы набрать необходимую физическую форму для своей роли.
    • Джейми Александер, Ольга Куриленко и Элоди Юнг прослушивались на роль Чудо Женщины прежде, чем она отошла Галь Гадот.
    • Марк Стронг, Дензел Вашингтон, Идрис Эльба, Адам Драйвер и Хоакин Феникс рассматривались на роль Лекса Лютора, прежде чем она досталась Джесси Айзенбергу.
    • Люси Гриффитс рассматривали на роль Чудо Женщины.
    • Тимоти Далтон рассматривался на роль Альфреда.
    • Галь Гадот – первая неамериканская актриса, исполнившая роль Чудо Женщины.
    • Джейсону Момоа предлагали роль Думсдэя.
    • Адам Драйвер, Пенн Бэджли и Эзра Миллер прослушивались на роль Найтвинга — союзника Бэтмена.
    Скриншоты:
    Скачать .torrent

    Скачать торрент-файл бесплатно и на максимальной скорости!

    Как скачивать? · Что такое торрент? · Рейтинг и ограничения

    !ВНИМАНИЕ!
    Сайт не распространяет и не хранит электронные версии произведений, а занимается лишь лишь предоставлением доступа к создаваемому пользователями каталогу ссылок на торрент-файлы, которые содержат только списки хеш-сумм, убедительная просьба с жалобами обращаться напрямую к пользователю. Файлы для обмена на трекере предоставлены пользователями сайта, и администрация не несёт ответственности за их содержание. Просьба не заливать файлы, защищенные авторскими правами, а также файлы нелегального содержания!


    _________________
    [Профиль] [ЛС]
    Показать сообщения:    
    Ответить на тему

    Текущее время: Сегодня, в 23:21

    Часовой пояс: GMT + 2



    Вы не можете начинать темы
    Вы не можете отвечать на сообщения
    Вы не можете редактировать свои сообщения
    Вы не можете удалять свои сообщения
    Вы не можете голосовать в опросах
    Вы не можете прикреплять файлы к сообщениям
    Вы не можете скачивать файлы