BitTorrentTracker PerecTracker.org
BitTorrentTracker PerecTracker.org
    
Регистрация  ·  Вход
 
 · 
Забыли пароль?

  • Босс в гостиной / Un boss in salotto (Лука Миньеро / Luca Miniero) [2014, Италия, комедия, HDRip] MVO

    Ответить на тему
     
    Автор Сообщение

    Light

    Создавать темы 28-Мар-2016 20:49

           

    [Цитировать]

    -Босс в гостиной
    Un boss in salotto
    -Страна: Италия
    Жанр: комедия
    Год выпуска: 2014
    Продолжительность: 01:42:05
    Перевод: Профессиональный (многоголосый закадровый)
    Cубтитры: нет
    Режиссер: Лука Миньеро / Luca Miniero-В ролях: Паола Кортеллези, Рокко Папалео, Лука Арджентеро, Анджела Финоккьяро, Але, Франц, Массимо Де Лоренцо-Описание: Кристина успешный врач-трансплантолог, живущий в небольшом городке на севере Италии. Ей удалось построить идеальную семью с мужем Микеле и двумя прекрасными детьми. Однажды после звонка в полицейский участок Кристина узнаёт, что её брат замешан в крупном процессе над мафией. Брат, которого, она не видела 15 лет, просит провести некоторое время под домашним арестом в её доме. Через силу Кристина даёт своё согласие. Все планы и привычная рутина семьи пойдут кувырком после появления в ней не приученного к хорошим манерам всего в татуировках и золотых цепях дядюшки Чиро.--Качество видео: HDRip
    Формат видео: AVI
    Видео: 720x304 (2.35:1), 23.976 fps, XviD build 73 ~1844 kbps avg, 0.35 bit/pixel
    Аудио: Русский: 48 kHz, AC3 Dolby Digital, 2/0 (L,R) ch, ~192 kbps-

    MediaInfo

    General
    Complete name : D:\Фильмы\Boss.v.gostinoj.2014.P.HDRip.avi
    Format : AVI
    Format/Info : Audio Video Interleave
    File size : 1.46 GiB
    Duration : 1h 42mn
    Overall bit rate : 2 045 Kbps
    Writing application : VirtualDubMod 1.5.10.2 (build 2540/release)
    Writing library : VirtualDubMod build 2540/release
    Video
    ID : 0
    Format : MPEG-4 Visual
    Format profile : Advanced Simple@L5
    Format settings, BVOP : 2
    Format settings, QPel : No
    Format settings, GMC : No warppoints
    Format settings, Matrix : Default (MPEG)
    Codec ID : XVID
    Codec ID/Hint : XviD
    Duration : 1h 42mn
    Bit rate : 1 844 Kbps
    Width : 720 pixels
    Height : 304 pixels
    Display aspect ratio : 2.35:1
    Frame rate : 23.976 (23976/1000) fps
    Color space : YUV
    Chroma subsampling : 4:2:0
    Bit depth : 8 bits
    Scan type : Progressive
    Compression mode : Lossy
    Bits/(Pixel*Frame) : 0.351
    Stream size : 1.31 GiB (90%)
    Writing library : XviD 1.2.1 (UTC 2008-12-04)
    Audio
    ID : 1
    Format : AC-3
    Format/Info : Audio Coding 3
    Mode extension : CM (complete main)
    Format settings, Endianness : Big
    Codec ID : 2000
    Duration : 1h 41mn
    Bit rate mode : Constant
    Bit rate : 192 Kbps
    Channel(s) : 2 channels
    Channel positions : Front: L R
    Sampling rate : 48.0 KHz
    Frame rate : 31.250 fps (1536 spf)
    Compression mode : Lossy
    Stream size : 140 MiB (9%)
    Alignment : Split accross interleaves
    Interleave, duration : 42 ms (1.00 video frame)
    Interleave, preload duratio : 500 ms

    -

    Скриншот c названием фильма

    Скриншоты



    -
    Скачать .torrent

    Скачать торрент-файл бесплатно и на максимальной скорости!

    Как скачивать? · Что такое торрент? · Рейтинг и ограничения

    !ВНИМАНИЕ!
    Сайт не распространяет и не хранит электронные версии произведений, а занимается лишь лишь предоставлением доступа к создаваемому пользователями каталогу ссылок на торрент-файлы, которые содержат только списки хеш-сумм, убедительная просьба с жалобами обращаться напрямую к пользователю. Файлы для обмена на трекере предоставлены пользователями сайта, и администрация не несёт ответственности за их содержание. Просьба не заливать файлы, защищенные авторскими правами, а также файлы нелегального содержания!


    _________________
    [Профиль] [ЛС]
    Показать сообщения:    
    Ответить на тему

    Текущее время: Сегодня, в 02:12

    Часовой пояс: GMT + 2



    Вы не можете начинать темы
    Вы не можете отвечать на сообщения
    Вы не можете редактировать свои сообщения
    Вы не можете удалять свои сообщения
    Вы не можете голосовать в опросах
    Вы не можете прикреплять файлы к сообщениям
    Вы не можете скачивать файлы