Register  ·  Log in
Forgot password?

  • Особо опасна / Barely Lethal (Кайл Ньюман / Kyle Newman) [2015, США, боевик, комедия, приключения, BDRip] Dub (iTunes)

    Reply to topic
    Author Message


    Post 28-Mar-2016 21:49



    Особо опасна / Barely Lethal
    Страна: США
    Жанр: боевик, комедия, приключения
    Годы выпуска: 2015
    Продолжительность: 01:38:36
    Перевод: Профессиональный (дублированный) iTunes
    Субтитры: нет
    Оригинальная аудиодорожка: нет
    Режиссер: Кайл Ньюман / Kyle Newman
    В ролях: Хейли Стайнфелд, Томас Манн, Софи Тернер, Дав Камерон, Тоби Себастьян, Гэбриел Бассо, Джессика Альба, Сэмюэл Л. Джексон
    Описание: Меган — спецагент международного класса. В свои шестнадцать она владеет карате, стреляет без промаха и способна обезвредить взрослого вооруженного мужчину. Но Меган мечтает о жизни простого тинейджера — с тусовками и дискотеками. И судьба предоставляет ей такую возможность, но очень скоро супердевушка понимает, что в школе бывает опаснее, чем на на самой сложной спецоперации.
    Доп. информация:
    Качество видео: BDRip | marchelush/1080p BD-Remux
    Формат видео: AVI
    Видео: 704x384 (1.83:1), 23.976 fps, XviD build 73 ~1723 kbps avg, 0.27 bit/pixel
    Аудио: 48 kHz, AC3 Dolby Digital, 3/2 (L,C,R,l,r) + LFE ch, ~384 kbps


    Complete name : C:\Barely.Lethal.2015.BDRip.Dub_by_LBS.avi
    Format : AVI
    Format/Info : Audio Video Interleave
    File size : 1.46 GiB
    Duration : 1h 38mn
    Overall bit rate : 2 112 Kbps
    Director : Last Boy Scout
    Writing application : VirtualDubMod | || (build 2550/release)
    Copyright : 28.03.2016
    Comment : BDRip Dub (iTunes)
    ID : 0
    Format : MPEG-4 Visual
    Format profile : Advanced Simple@L5
    Format settings, BVOP : 1
    Format settings, QPel : No
    Format settings, GMC : No warppoints
    Format settings, Matrix : Custom
    Codec ID : XVID
    Codec ID/Hint : XviD
    Duration : 1h 38mn
    Bit rate : 1 724 Kbps
    Width : 704 pixels
    Height : 384 pixels
    Display aspect ratio : 1.85:1
    Frame rate : 23.976 fps
    Color space : YUV
    Chroma subsampling : 4:2:0
    Bit depth : 8 bits
    Scan type : Progressive
    Compression mode : Lossy
    Bits/(Pixel*Frame) : 0.266
    Stream size : 1.19 GiB (82%)
    Writing library : XviD 73
    ID : 1
    Format : AC-3
    Format/Info : Audio Coding 3
    Mode extension : CM (complete main)
    Format settings, Endianness : Big
    Codec ID : 2000
    Duration : 1h 37mn
    Bit rate mode : Constant
    Bit rate : 384 Kbps
    Channel(s) : 6 channels
    Channel positions : Front: L C R, Side: L R, LFE
    Sampling rate : 48.0 KHz
    Bit depth : 16 bits
    Compression mode : Lossy
    Stream size : 268 MiB (18%)
    Alignment : Split accross interleaves
    Interleave, duration : 42 ms (1.01 video frame)
    Interleave, preload duration : 500 ms


    Download .torrent

    Download free and at maximum speed!

    How to Download? · What is a torrent? · Ratings and Limitations

    The site does not extend and does not store electronic(digital) versions of products, and only gives access to a reference catalogue created by users on torrent-files which contain only lists of the hash-sums, the earnest entreaty, with complaints(abuse) to access directly to the user. Files for an exchange on tracker are given by users of a site, and the administration does not bear the responsibility for their maintenance. The request to not fill in the files protected by copyrights, and also files of the illegal maintenance!

    [Profile] [PM]
    Display posts from previous:    
    Reply to topic

    The time now is: Today 16:39

    All times are GMT + 3 Hours

    You cannot post new topics in this forum
    You cannot reply to topics in this forum
    You cannot edit your posts in this forum
    You cannot delete your posts in this forum
    You cannot vote in polls in this forum
    You cannot attach files in this forum
    You cannot download files in this forum