BitTorrentTracker PerecTracker.org
BitTorrentTracker PerecTracker.org
    
Регистрация  ·  Вход
 
 · 
Забыли пароль?

  • [ATV3] Тряпичный союз (Михаил Местецкий) [2015, Россия, Комедия, драма, WEB-DL, HD (1080p)] Original

    Ответить на тему
     
    Автор Сообщение

    rechyn

    Создавать темы 28-Мар-2016 16:44

           

    [Цитировать]

    Тряпичный союз
    -
    6.744 / 10 7.70 / 10
    -Год выпуска: 2015
    Страна: Россия
    Жанр: Комедия, драма
    Продолжительность: 01:38:40
    Перевод: Не требуется
    Оригинальная аудиодорожка: Есть
    Cубтитры: Нет
    Режиссёр: Михаил Местецкий
    Сценарий: Михаил Местецкий
    Продюсер: Роман Борисевич, Александр Кушаев
    Оператор: Тимофей Парщиков
    Композитор: Кирилл Белоруссов
    Художник: Эльдар Кархалев, Ульяна Полянская
    В ролях: Иван Янковский, Александр Паль, Василий Буткевич, Павел Чинарёв, Анастасия Пронина, Федор Лавров, Елена Нестерова, Владислав Ветров, Кирилл Кяро, Андрей Крыжний
    Сборы в России: $22 513
    Премьера (РФ): 3 марта 2016, «Ракета Релизинг»
    Описание: Жизнь тихого подростка Вани меняется после знакомства с тремя очень странными парнями. Спортсмены, хулиганы, мечтатели, они называют себя «Тряпичный Союз» и верят, что изменят весь мир. Очарованный новой дружбой, Ваня поселяет парней у себя на даче и всеми силами пытается стать частью их «величайшей организации». Но у соседской девочки Саши свои планы на эту компанию.-Качество исходника: WEB-DL 1080p (BlueBird)
    Качество: WEB-DL
    Тип: HD (1080p)
    Контейнер: M4V
    Видео: H.264, 1920x1080, 16:9, 5 197 Kbps, 24.000 fps
    Аудио 1: Русский/Оригинальная дорожка , AAC / 2.0 / 156 Kbps / 48.0 KHz
    Аудио 2: Русский/Оригинальная дорожка , AC-3 / 5.1 / 384 Kbps / 48.0 KHz
    -

    iTunes Meta Tags

    Sort Name: Тряпичный союз
    XID: Apple:vendor_id:2015-742198
    contentID: 1089041535
    Copyright: © 2016 Кинокомпания Коктебель
    Screenwriters: Михаил Местецкий
    Producers: Роман Борисевич, Александр Кушаев
    Director: Михаил Местецкий
    Cast: Иван Янковский, Александр Паль, Василий Буткевич, Павел Чинарёв, Анастасия Пронина, Федор Лавров, Елена Нестерова, Владислав Ветров, Кирилл Кяро, Андрей Крыжний
    Studio: Кинокомпания Коктебель
    Rating: 136
    Long Description: Жизнь тихого подростка Вани меняется после знакомства с тремя очень странными парнями. Спортсмены, хулиганы, мечтатели, они называют себя "Тряпичный Союз" и верят, что изменят весь мир. Очарованный новой дружбой, Ваня поселяет парней у себя на даче и всеми силами пытается стать частью их "величайшей организации". Но у соседской девочки Саши свои планы на эту компанию.
    Description: Жизнь тихого подростка Вани меняется после знакомства с тремя очень странными парнями. Спортсмены, хулиганы, мечтатели, они называют себя "Тряпичный Союз" и верят, что изменят весь мир. Очарованный новой дружбой, Ваня поселяет парней у себя на даче и всеми силами пытается стать частью их "величайшей организации". Но у соседской девочки Саши свои планы на эту компанию.
    Release Date: 2015-01-01T08:00:00Z
    Genre: Русское кино
    Artist: Михаил Местецкий
    Name: Тряпичный союз

    MediaInfo

    General
    Complete name : /Users/imac/HandBrake/Tryapichnyy.soyuz.WEB-DL.1080p.m4v
    Format : MPEG-4
    Codec ID : M4V  (M4V /M4A /mp42/isom)
    File size : 3.96 GiB
    Duration : 1h 38mn
    Overall bit rate mode : Variable
    Overall bit rate : 5 745 Kbps
    Movie name : Тряпичный союз
    Performer : Михаил Местецкий
    Director : Михаил Местецкий
    Actor : Иван Янковский / Александр Паль / Василий Буткевич / Павел Чинарёв / Анастасия Пронина / Федор Лавров / Елена Нестерова / Владислав Ветров / Кирилл Кяро / Андрей Крыжний
    Screenplay by : Михаил Местецкий
    Producer : Роман Борисевич / Александр Кушаев
    Production studio : Кинокомпания Коктебель
    Genre : Русское кино
    ContentType : Short Film
    Description : Жизнь тихого подростка Вани меняется после знакомства с тремя очень странными парнями. Спортсмены, хулиганы, мечтатели, они называют себя "Тряпичный Союз" и верят, что изменят весь мир. Очарованный новой дружбой, Ваня поселяет парней у себя на даче и всеми силами пытается стать частью их "величайшей организации". Но у соседской девочки Саши свои планы на эту компанию.
    Recorded date : UTC 2015-01-01 08:00:00
    Encoded date : UTC 2016-03-28 10:11:26
    Tagged date : UTC 2016-03-28 10:12:28
    Copyright : © 2016 Кинокомпания Коктебель
    Cover : Yes
    Rating : None
    Title/Sort : Тряпичный союз
    LongDescription : Жизнь тихого подростка Вани меняется после знакомства с тремя очень странными парнями. Спортсмены, хулиганы, мечтатели, они называют себя "Тряпичный Союз" и верят, что изменят весь мир. Очарованный новой дружбой, Ваня поселяет парней у себя на даче и всеми силами пытается стать частью их "величайшей организации". Но у соседской девочки Саши свои планы на эту компанию.
    AppleStoreCatalogID : 1089041535
    Vendor : Apple:vendor_id:2015-742198
    ContentRating : ru-movie|18+|400|
    Video #1
    ID : 1
    Format : AVC
    Format/Info : Advanced Video Codec
    Format profile : High@L4
    Format settings, CABAC : Yes
    Format settings, ReFrames : 4 frames
    Codec ID : avc1
    Codec ID/Info : Advanced Video Coding
    Duration : 1h 38mn
    Bit rate : 5 197 Kbps
    Width : 1 920 pixels
    Height : 1 080 pixels
    Display aspect ratio : 16:9
    Frame rate mode : Variable
    Frame rate : 24.000 fps
    Minimum frame rate : 23.810 fps
    Maximum frame rate : 24.390 fps
    Color space : YUV
    Chroma subsampling : 4:2:0
    Bit depth : 8 bits
    Scan type : Progressive
    Bits/(Pixel*Frame) : 0.104
    Stream size : 3.58 GiB (90%)
    Title : Main Program
    Language : Russian
    Encoded date : UTC 2016-03-28 10:11:26
    Tagged date : UTC 2016-03-28 10:11:32
    Color range : Limited
    Color primaries : BT.709
    Transfer characteristics : BT.709
    Matrix coefficients : BT.709
    Menus : 4,5
    Video #2
    ID : 5
    Format : JPEG
    Codec ID : jpeg
    Duration : 1h 38mn
    Bit rate mode : Variable
    Bit rate : 810 bps
    Width : 640 pixels
    Height : 360 pixels
    Display aspect ratio : 16:9
    Frame rate mode : Constant
    Frame rate : 0.002 fps
    Color space : YUV
    Chroma subsampling : 4:2:0
    Bit depth : 8 bits
    Compression mode : Lossy
    Bits/(Pixel*Frame) : 1.758
    Stream size : 841 KiB (0%)
    Title : Chapter Images
    Language : Russian
    Default : No
    Encoded date : UTC 2016-03-28 10:11:40
    Tagged date : UTC 2016-03-28 10:11:40
    Menu For : 1
    Audio #1
    ID : 2
    Format : AAC
    Format/Info : Advanced Audio Codec
    Format profile : LC
    Codec ID : 40
    Duration : 1h 38mn
    Bit rate mode : Variable
    Bit rate : 156 Kbps
    Maximum bit rate : 243 Kbps
    Channel(s) : 2 channels
    Channel positions : Front: L R
    Sampling rate : 48.0 KHz
    Frame rate : 46.875 fps (1024 spf)
    Compression mode : Lossy
    Stream size : 110 MiB (3%)
    Title : Russian Stereo
    Language : Russian
    Default : Yes
    Alternate group : 1
    Encoded date : UTC 2016-03-28 10:11:26
    Tagged date : UTC 2016-03-28 10:11:33
    Fallback From : 3
    Audio #2
    ID : 3
    Format : AC-3
    Format/Info : Audio Coding 3
    Mode extension : CM (complete main)
    Format settings, Endianness : Big
    Codec ID : ac-3
    Duration : 1h 38mn
    Bit rate mode : Constant
    Bit rate : 384 Kbps
    Channel(s) : 6 channels
    Channel positions : Front: L C R, Side: L R, LFE
    Sampling rate : 48.0 KHz
    Frame rate : 31.250 fps (1536 spf)
    Bit depth : 16 bits
    Compression mode : Lossy
    Stream size : 271 MiB (7%)
    Title : Russian DD 5.1
    Language : Russian
    Default : Inherited From: 2
    Alternate group : 1
    Encoded date : UTC 2016-03-28 10:11:26
    Tagged date : UTC 2016-03-28 10:11:32
    Fallback To : 2
    Menu #1
    00:00:00.000 : Глава 1
    00:05:41.416 : Глава 2
    00:10:54.499 : Глава 3
    00:16:25.207 : Глава 4
    00:21:54.582 : Глава 5
    00:27:59.415 : Глава 6
    00:33:46.206 : Глава 7
    00:39:19.747 : Глава 8
    00:44:42.580 : Глава 9
    00:51:07.496 : Глава 10
    00:56:24.496 : Глава 11
    01:02:09.329 : Глава 12
    01:07:27.620 : Глава 13
    01:13:03.953 : Глава 14
    01:18:55.036 : Глава 15
    01:25:27.869 : Глава 16
    01:31:48.119 : Глава 17
    Menu #2
    ID : 4
    Codec ID : text
    Duration : 1h 38mn
    Language : Russian
    Encoded date : UTC 2016-03-28 10:11:33
    Tagged date : UTC 2016-03-28 10:11:33
    Menu For : 1
    00:00:00.000 : Глава 1
    00:05:41.416 : Глава 2
    00:10:54.499 : Глава 3
    00:16:25.207 : Глава 4
    00:21:54.582 : Глава 5
    00:27:59.415 : Глава 6
    00:33:46.206 : Глава 7
    00:39:19.747 : Глава 8
    00:44:42.580 : Глава 9
    00:51:07.496 : Глава 10
    00:56:24.496 : Глава 11
    01:02:09.329 : Глава 12
    01:07:27.620 : Глава 13
    01:13:03.953 : Глава 14
    01:18:55.036 : Глава 15
    01:25:27.869 : Глава 16
    01:31:48.119 : Глава 17
    Bit rate mode : VBR

    Скриншоты

    -

    Релиз подготовлен для просмотра на Apple TV, iPad, iPhone, iPod Touch.
    Для просмотра данного релиза на компьютере с ОС Windows рекомендуется использовать VLC media player
    Скачать .torrent

    Скачать торрент-файл бесплатно и на максимальной скорости!

    Как скачивать? · Что такое торрент? · Рейтинг и ограничения

    !ВНИМАНИЕ!
    Сайт не распространяет и не хранит электронные версии произведений, а занимается лишь лишь предоставлением доступа к создаваемому пользователями каталогу ссылок на торрент-файлы, которые содержат только списки хеш-сумм, убедительная просьба с жалобами обращаться напрямую к пользователю. Файлы для обмена на трекере предоставлены пользователями сайта, и администрация не несёт ответственности за их содержание. Просьба не заливать файлы, защищенные авторскими правами, а также файлы нелегального содержания!


    _________________
    [Профиль] [ЛС]
    Показать сообщения:    
    Ответить на тему

    Текущее время: Сегодня, в 07:13

    Часовой пояс: GMT + 2



    Вы не можете начинать темы
    Вы не можете отвечать на сообщения
    Вы не можете редактировать свои сообщения
    Вы не можете удалять свои сообщения
    Вы не можете голосовать в опросах
    Вы не можете прикреплять файлы к сообщениям
    Вы не можете скачивать файлы