BitTorrentTracker PerecTracker.org
BitTorrentTracker PerecTracker.org
    
Регистрация  ·  Вход
 
 · 
Забыли пароль?

  • Тряпичный союз (Михаил Местецкий) [2015, комедия, драма, WEB-DLRip-AVC]

    Ответить на тему
     
    Автор Сообщение

    Flirldrerve

    Создавать темы 28-Мар-2016 12:39

           

    [Цитировать]

    Тряпичный союз-Страна: Россия
    Жанр: Комедия, драма
    Год выпуска: 2015
    Продолжительность: 01:38:40
    Перевод: Не требуется
    Оригинальная аудиодорожка: русский
    Навигация по главам: есть
    Режиссер: Михаил Местецкий
    В ролях: Иван Янковский, Александр Паль, Василий Буткевич, Павел Чинарёв, Анастасия Пронина, Федор Лавров, Елена Нестерова, Владислав Ветров, Кирилл Кяро, Андрей Крыжний
    О фильме: Жизнь тихого подростка Вани меняется после знакомства с тремя очень странными парнями. Спортсмены, хулиганы, мечтатели, они называют себя «Тряпичный Союз» и верят, что изменят весь мир. Очарованный новой дружбой, Ваня поселяет парней у себя на даче и всеми силами пытается стать частью их «величайшей организации». Но у соседской девочки Саши свои планы на эту компанию.

    Качество: WEB-DLRip-AVC (исходник - Web-DL|TRYAPI4NIJ_SOJUZ_WEB_DL_1080p-BLUEBIRD)
    Формат: MKV
    Видео: x264, 1152x648 (16:9), 24.000 кадр/сек, 2770 Кбит/сек, 0.155 bit/pixel
    Аудио: 48 kHz, AC3 Dolby Digital, 3/2 (L,C,R,l,r) + LFE ch, ~384 kbps avg
    MediaInfo | x264 log
    Format : Matroska
    Format version : Version 4 / Version 2
    File size : 2.17 GiB
    Duration : 1h 38mn
    Overall bit rate : 3 150 Kbps
    Movie name : Тряпичный союз (2015) :: AFM ::
    Encoded date : UTC 2016-03-28 05:28:12
    Writing application : mkvmerge v8.3.0 ('Over the Horizon') 32bit
    Writing library : libebml v1.3.1 + libmatroska v1.4.2
    Video
    ID : 1
    Format : AVC
    Format/Info : Advanced Video Codec
    Format profile : High@L4.1
    Format settings, CABAC : Yes
    Format settings, ReFrames : 10 frames
    Codec ID : V_MPEG4/ISO/AVC
    Duration : 1h 38mn
    Bit rate : 2 770 Kbps
    Width : 1 152 pixels
    Height : 648 pixels
    Display aspect ratio : 16:9
    Frame rate mode : Constant
    Frame rate : 24.000 fps
    Color space : YUV
    Chroma subsampling : 4:2:0
    Bit depth : 8 bits
    Scan type : Progressive
    Bits/(Pixel*Frame) : 0.155
    Stream size : 1.86 GiB (86%)
    Title : WebDL-Rip by AFM [RuTracker.org]
    Writing library : x264 core 148 r2665+53 6629127 t_mod_Custom [8-bit@all X86_64]
    Encoding settings : cabac=1 / ref=10 / deblock=1:-2:-1 / analyse=0x3:0x113 / me=umh / subme=10 / psy=1 / fade_compensate=0.00 / psy_rd=1.00:0.00 / mixed_ref=1 / me_range=32 / chroma_me=1 / trellis=2 / 8x8dct=1 / cqm=0 / deadzone=21,11 / fast_pskip=0 / chroma_qp_offset=-2 / threads=6 / lookahead_threads=1 / sliced_threads=0 / nr=0 / decimate=0 / interlaced=0 / bluray_compat=0 / constrained_intra=0 / fgo=0 / bframes=10 / b_pyramid=2 / b_adapt=2 / b_bias=0 / direct=3 / weightb=1 / open_gop=0 / weightp=2 / keyint=250 / keyint_min=23 / scenecut=40 / intra_refresh=0 / rc_lookahead=40 / rc=2pass / mbtree=0 / bitrate=2770 / ratetol=1.0 / qcomp=0.65 / qpmin=0:0:0 / qpmax=69:69:69 / qpstep=4 / cplxblur=20.0 / qblur=0.5 / vbv_maxrate=50000 / vbv_bufsize=62500 / nal_hrd=none / filler=0 / ip_ratio=1.32 / pb_ratio=1.30 / aq=1:0.90 / aq-sensitivity=10.00 / aq-factor=1.00:1.00:1.00 / aq2=0 / aq3=0
    Language : Russian
    Default : Yes
    Forced : No
    Audio
    ID : 2
    Format : AC-3
    Format/Info : Audio Coding 3
    Mode extension : CM (complete main)
    Format settings, Endianness : Big
    Codec ID : A_AC3
    Duration : 1h 38mn
    Bit rate mode : Constant
    Bit rate : 384 Kbps
    Channel(s) : 6 channels
    Channel positions : Front: L C R, Side: L R, LFE
    Sampling rate : 48.0 KHz
    Compression mode : Lossy
    Stream size : 271 MiB (12%)
    Title : AC3, 5.1 ~384 kbps
    Language : Russian
    Default : Yes
    Forced : No
    Menu
    00:00:00.000 : en:Глава 1
    00:05:41.416 : en:Глава 2
    00:10:54.499 : en:Глава 3
    00:16:25.207 : en:Глава 4
    00:21:54.582 : en:Глава 5
    00:27:59.415 : en:Глава 6
    00:33:46.206 : en:Глава 7
    00:39:19.747 : en:Глава 8
    00:44:42.580 : en:Глава 9
    00:51:07.496 : en:Глава 10
    00:56:24.496 : en:Глава 11
    01:02:09.329 : en:Глава 12
    01:07:27.620 : en:Глава 13
    01:13:03.953 : en:Глава 14
    01:18:55.036 : en:Глава 15
    01:25:27.869 : en:Глава 16
    01:31:48.119 : en:Глава 17

    x264

    x264 [info]: frame I:831 Avg QP:14.73 size: 81522
    x264 [info]: frame P:42537 Avg QP:17.69 size: 27842
    x264 [info]: frame B:98720 Avg QP:19.51 size: 8041
    x264 [info]: consecutive B-frames: 4.8% 9.1% 9.1% 62.8% 5.6% 6.5% 0.6% 0.8% 0.2% 0.2% 0.4%
    x264 [info]: mb I I16..4: 6.6% 76.5% 16.9%
    x264 [info]: mb P I16..4: 1.6% 11.3% 1.4% P16..4: 40.6% 27.6% 12.9% 0.0% 0.0% skip: 4.7%
    x264 [info]: mb B I16..4: 0.1% 0.9% 0.1% B16..8: 37.0% 11.5% 2.8% direct: 5.9% skip:41.6% L0:38.8% L1:48.1% BI:13.1%
    x264 [info]: 8x8 transform intra:78.9% inter:60.1%
    x264 [info]: direct mvs spatial:97.4% temporal:2.6%
    x264 [info]: coded y,uvDC,uvAC intra: 81.5% 82.7% 56.5% inter: 22.1% 21.3% 10.1%
    x264 [info]: i16 v,h,dc,p: 18% 11% 6% 64%
    x264 [info]: i8 v,h,dc,ddl,ddr,vr,hd,vl,hu: 17% 10% 6% 8% 11% 12% 12% 12% 12%
    x264 [info]: i4 v,h,dc,ddl,ddr,vr,hd,vl,hu: 15% 9% 4% 9% 14% 14% 13% 10% 11%
    x264 [info]: i8c dc,h,v,p: 38% 23% 22% 17%
    x264 [info]: Weighted P-Frames: Y:98.6% UV:1.8%
    x264 [info]: ref P L0: 56.3% 10.3% 15.1% 5.0% 3.9% 2.7% 2.5% 1.4% 1.4% 1.2% 0.3% 0.0%
    x264 [info]: ref B L0: 79.8% 9.7% 4.0% 2.1% 1.3% 1.2% 1.0% 0.5% 0.3%
    x264 [info]: ref B L1: 95.6% 4.4%
    x264 [info]: kb/s:2764.54

    Скриншоты

    с названием

    Скачать .torrent

    Скачать торрент-файл бесплатно и на максимальной скорости!

    Как скачивать? · Что такое торрент? · Рейтинг и ограничения

    !ВНИМАНИЕ!
    Сайт не распространяет и не хранит электронные версии произведений, а занимается лишь лишь предоставлением доступа к создаваемому пользователями каталогу ссылок на торрент-файлы, которые содержат только списки хеш-сумм, убедительная просьба с жалобами обращаться напрямую к пользователю. Файлы для обмена на трекере предоставлены пользователями сайта, и администрация не несёт ответственности за их содержание. Просьба не заливать файлы, защищенные авторскими правами, а также файлы нелегального содержания!


    _________________
    [Профиль] [ЛС]
    Показать сообщения:    
    Ответить на тему

    Текущее время: Сегодня, в 05:58

    Часовой пояс: GMT + 2



    Вы не можете начинать темы
    Вы не можете отвечать на сообщения
    Вы не можете редактировать свои сообщения
    Вы не можете удалять свои сообщения
    Вы не можете голосовать в опросах
    Вы не можете прикреплять файлы к сообщениям
    Вы не можете скачивать файлы