BitTorrentTracker PerecTracker.org
BitTorrentTracker PerecTracker.org
    
Регистрация  ·  Вход
 
 · 
Забыли пароль?

  • Смайлик (Тамара Аленикова) [2014, Россия, мелодрама, HDTVRip]

    Ответить на тему
     
    Автор Сообщение

    Flirldrerve

    Создавать темы 28-Мар-2016 08:34

           

    [Цитировать]

    Смайлик
    Страна: Россия
    Жанр: мелодрама
    Год выпуска: 2014
    Продолжительность: 01:27:15
    Cубтитры: нет
    Оригинальная аудиодорожка: русский-Режиссер: Тамара Аленикова-В ролях: Александра Лупашко, Антон Соколов (II), Татьяна Яковенко, Витас Эйзенах, Мария Поезжаева, Мария Бушмелёва,
    Александр Ратников, Александр Чевычелов, Алексей Суренский, Ольга Хохлова, Валентина Светлова (II)-Описание: Вы верите в любовь с первого взгляда в современном мире безумных скоростей и бесконечных СМС? Разные люди находят друг друга и знакомятся в социальных сетях. У каждого из них — своя устроенная жизнь, привычки, привязанности. Казалось бы, ничего не предвещает судьбоносных перемен… Что может поколебать этот устойчивый и привычный мир? Разве что, случайный смайлик на мониторе… И безумное предложение встретиться… Смайлик — величайшее изобретение нашего времени! «Смайлик» — три новеллы, три истории любви с непредсказуемой развязкой.-
    -Качество видео: HDTVRip
    Формат видео: AVI
    Видео: 720x384 (1.88:1), 25 fps, XviD build 65 ~1943 kbps avg, 0.28 bit/pixel
    Аудио: 48 kHz, AC3 Dolby Digital, 3/2 (L,C,R,l,r) + LFE ch, ~448 kbps-Скачать сэмпл-

    MediaInfo

    Format                      : AVI
    Format/Info                 : Audio Video Interleave
    File size                   : 1.46 GiB
    Duration                    : 1h 27mn
    Overall bit rate            : 2 402 Kbps
    Writing application         : VirtualDubMod 1.5.10.3 | www.virtualdub-fr.org || (build 2550/release)
    Writing library             : VirtualDubMod build 2550/release
    Video
    ID                          : 0
    Format                      : MPEG-4 Visual
    Format profile              : Advanced Simple@L5
    Format settings, BVOP       : 1
    Format settings, QPel       : No
    Format settings, GMC        : No warppoints
    Format settings, Matrix     : Default (MPEG)
    Codec ID                    : XVID
    Codec ID/Hint               : XviD
    Duration                    : 1h 27mn
    Bit rate                    : 1 944 Kbps
    Width                       : 720 pixels
    Height                      : 384 pixels
    Display aspect ratio        : 1.85:1
    Frame rate                  : 25.000 fps
    Color space                 : YUV
    Chroma subsampling          : 4:2:0
    Bit depth                   : 8 bits
    Scan type                   : Progressive
    Compression mode            : Lossy
    Bits/(Pixel*Frame)          : 0.281
    Stream size                 : 1.18 GiB (81%)
    Writing library             : XviD 65
    Audio
    ID                          : 1
    Format                      : AC-3
    Format/Info                 : Audio Coding 3
    Mode extension              : CM (complete main)
    Format settings, Endianness : Big
    Codec ID                    : 2000
    Duration                    : 1h 27mn
    Bit rate mode               : Constant
    Bit rate                    : 448 Kbps
    Channel(s)                  : 6 channels
    Channel positions           : Front: L C R, Side: L R, LFE
    Sampling rate               : 48.0 KHz
    Frame rate                  : 31.250 fps (1536 spf)
    Compression mode            : Lossy
    Stream size                 : 280 MiB (19%)
    Alignment                   : Split accross interleaves
    Interleave, duration        : 40 ms (1.00 video frame)
    Interleave, preload duratio : 500 ms

    Скриншоты

    Скачать .torrent

    Скачать торрент-файл бесплатно и на максимальной скорости!

    Как скачивать? · Что такое торрент? · Рейтинг и ограничения

    !ВНИМАНИЕ!
    Сайт не распространяет и не хранит электронные версии произведений, а занимается лишь лишь предоставлением доступа к создаваемому пользователями каталогу ссылок на торрент-файлы, которые содержат только списки хеш-сумм, убедительная просьба с жалобами обращаться напрямую к пользователю. Файлы для обмена на трекере предоставлены пользователями сайта, и администрация не несёт ответственности за их содержание. Просьба не заливать файлы, защищенные авторскими правами, а также файлы нелегального содержания!


    _________________
    [Профиль] [ЛС]
    Показать сообщения:    
    Ответить на тему

    Текущее время: Сегодня, в 02:55

    Часовой пояс: GMT + 2



    Вы не можете начинать темы
    Вы не можете отвечать на сообщения
    Вы не можете редактировать свои сообщения
    Вы не можете удалять свои сообщения
    Вы не можете голосовать в опросах
    Вы не можете прикреплять файлы к сообщениям
    Вы не можете скачивать файлы